Prison Break All Season 720p.BluRay.DTS.x264 (Vượt ngục trọn bộ)

Thảo luận trong 'Phim Bộ' bắt đầu bởi TTL, 10/5/13.

  1. TTL nncc

    6,478 lượt xem
    Code:
    Format                          : Matroska
    File size                        : 2.18 GiB
    Duration                        : 43mn 41s
    Overall bit rate                : 7 134 Kbps
    Movie name                      : Prison Break (2005) Season 1, Episode 1: Pilot
    Encoded date                    : UTC 2007-12-04 07:52:57
    Writing application              : mkvmerge v2.1.0 ('Another Place To Fall') built on Aug 19 2007 13:40:07
    Writing library                  : libebml v0.7.7 + libmatroska v0.8.1
     
    Video
    ID                              : 1
    Format                          : AVC
    Format/Info                      : Advanced Video Codec
    Format profile                  : High@L5.1
    Format settings, CABAC          : Yes
    Format settings, ReFrames        : 8 frames
    Codec ID                        : V_MPEG4/ISO/AVC
    Duration                        : 43mn 41s
    Bit rate                        : 5 621 Kbps
    Width                            : 1 280 pixels
    Height                          : 720 pixels
    Display aspect ratio            : 16:9
    Frame rate                      : 23.976 fps
    Color space                      : YUV
    Chroma subsampling              : 4:2:0
    Bit depth                        : 8 bits
    Scan type                        : Progressive
    Bits/(Pixel*Frame)              : 0.254
    Stream size                      : 1.67 GiB (77%)
    Writing library                  : x264 core 56 svn-681
    Encoding settings                : cabac=1 / ref=5 / deblock=1:-3:-3 / analyse=0x3:0x133 / me=umh / fpel_cmp=sad / subme=6 / me-prepass=0 / brdo=1 / mixed_ref=1 / me_range=16 / chroma_me=1 / trellis=1 / 8x8dct=1 / cqm=2 / deadzone=10,10 / chroma_qp_offset=0 / threads=3 / nr=0 / decimate=0 / mbaff=0 / bframes=3 / b_pyramid=1 / b_adapt=1 / b_bias=0 / direct=1 / wpredb=1 / bime=1 / keyint=250 / keyint_min=25 / scenecut=40(pre) / rc=2pass / bitrate=5621 / ratetol=1.0 / rceq='blurCplx^(1-qComp)' / qcomp=0.60 / qpmin=10 / qpmax=51 / qpstep=4 / cplxblur=20.0 / qblur=0.5 / ip_ratio=1.40 / pb_ratio=1.30 / aq=1:0.7:15.0
    Language                        : English
     
    Audio
    ID                              : 2
    Format                          : DTS
    Format/Info                      : Digital Theater Systems
    Codec ID                        : A_DTS
    Duration                        : 43mn 41s
    Bit rate mode                    : Constant
    Bit rate                        : 1 510 Kbps
    Channel(s)                      : 6 channels
    Channel positions                : Front: L C R, Side: L R, LFE
    Sampling rate                    : 48.0 KHz
    Bit depth                        : 24 bits
    Compression mode                : Lossy
    Stream size                      : 472 MiB (21%)
    Language                        : English


    1. Prison.Break.S01.720p.BluRay.DTS.x264-ESiR



    2. Prison.Break.S02.720p.BluRay.DTS.x264-EbP



    3. Prison.Break.S03.720p.BluRay.DTS.x264-SiNNERS



    4. Prison.Break.S04.720p.BluRay.DTS.x264-SiNNERS




    5. Prison.Break.The.Final.Break.2009.720p.BluRay.DTS. x264
    Tags:

    Thấy hay chia sẻ ngay

Đang tải...