Phim Việt Nam Tôi Thấy Hoa Vàng Trên Cỏ Xanh 2015 1080p HDTV DD2.0 H.264-KPlusHD ~Tôi Thấy Hoa Vàng Trên Cỏ Xanh

Thảo luận trong 'Phim Lồng tiếng/Thuyết minh' bắt đầu bởi henryduc96, 5/12/15.

  1. henryduc96 Uploader

    2,012 lượt xem
    Tôi Thấy Hoa Vàng Trên Cỏ Xanh 2015 1080p HDTV DD2.0 H.264-KPlusHD
    Tôi Thấy Hoa Vàng Trên Cỏ Xanh
    (Thịnh Vinh, Thanh Mỹ, Trong Khang)
    [​IMG]


    [​IMG]
    [​IMG]
    Code:
    General
    ID                                       : 1 (0x1)
    Complete name                            : [Kplus1HD]Toi.Thay.Hoa.Vang.Tren.Co.Xanh.20151204.HDTV.x264.1080i.AAC.P-Phim.ts
    Format                                   : MPEG-TS
    File size                                : 2.80 GiB
    Duration                                 : 1h 38mn
    Overall bit rate mode                    : Variable
    Overall bit rate                         : 4 088 Kbps
    Maximum Overall bit rate                 : 35.5 Mbps
    
    Video
    ID                                       : 4113 (0x1011)
    Menu ID                                  : 1 (0x1)
    Format                                   : AVC
    Format/Info                              : Advanced Video Codec
    Format profile                           : High@L4.0
    Format settings, CABAC                   : Yes
    Format settings, ReFrames                : 4 frames
    Format settings, GOP                     : M=8, N=24
    Codec ID                                 : 27
    Duration                                 : 1h 38mn
    Bit rate mode                            : Variable
    Bit rate                                 : 3 757 Kbps
    Maximum bit rate                         : 40.0 Mbps
    Width                                    : 1 920 pixels
    Height                                   : 1 080 pixels
    Display aspect ratio                     : 16:9
    Frame rate                               : 25.000 fps
    Standard                                 : Component
    Color space                              : YUV
    Chroma subsampling                       : 4:2:0
    Bit depth                                : 8 bits
    Scan type                                : MBAFF
    Scan order                               : Top Field First
    Bits/(Pixel*Frame)                       : 0.072
    Stream size                              : 2.57 GiB (92%)
    Color primaries                          : BT.709
    Transfer characteristics                 : BT.709
    Matrix coefficients                      : BT.709
    Color range                              : Limited
    
    Audio
    ID                                       : 4352 (0x1100)
    Menu ID                                  : 1 (0x1)
    Format                                   : MPEG Audio
    Format version                           : Version 1
    Format profile                           : Layer 2
    Codec ID                                 : 4
    Duration                                 : 1h 38mn
    Bit rate mode                            : Constant
    Bit rate                                 : 128 Kbps
    Channel(s)                               : 2 channels
    Sampling rate                            : 48.0 KHz
    Compression mode                         : Lossy
    Stream size                              : 89.8 MiB (3%)
    Language                                 : Vietnamese
    
    
    
    [​IMG]
    [​IMG] [​IMG] [​IMG] [​IMG] [​IMG] [​IMG]
    Full Screenshots:
    [​IMG]
    [VIDEO]
    [​IMG]
    [​IMG]
    Link FSHARE:
    Bạn nhấn nút Thanks, sau đó nhấn F5 để lấy link nhé!
    [​IMG]
    Link TENLUA:
    Bạn nhấn nút Thanks, sau đó nhấn F5 để lấy link nhé!
    Link TENLUA Kho Phim Lẻ HD ĐẦY ĐỦ các PHIM Hot, Bom Tấn, Bom Tạ( Trên 300 PHIM Mỹ - Châu Âu - Hàn Quốc - Trung Quốc ,...)[​IMG]

    Link TENLUA Kho phim BỘ HÀN QUỐC có trên 150 Phim {Cập nhật MỖI NGÀY}
    [​IMG]

    Bộ Sưu Tập TNCD FULL trên 600 đĩa[​IMG]
    Bộ Sưu Tập ASIA CD FULL[​IMG]


    CAM KẾT CHẤT LƯỢNG: Tất cả những phim mình up ở đây đều là hàng chất lượng cao 100%, được lấy từ nguồn rõ ràng, xem KHÔNG GIẬT và phù hợp với mọi loại PC, laptop, HD player, TV,.. Do đó mọi người cứ yên tâm mà xem không sợ bị lỗi.
    List phim: mHD - 720p - 1080p - BluRay Remux {Cập Nhật Hằng Giờ}
    [​IMG]
    Last edited: 12/12/15

    Thấy hay chia sẻ ngay

  2. spoon3189

    spoon3189 Thành viên mới

    bác up lại phim Farewell Berlin Wall này đc ko
  3. henryduc96

    henryduc96 Uploader

  4. henryduc96

    henryduc96 Uploader

    leminhquy and lequyet like this.
  5. henryduc96

    henryduc96 Uploader

  6. henryduc96

    henryduc96 Uploader

  7. drdeath

    drdeath Thành viên mới

    Bác reup lại hay reup host khác được ko ?
    fshare thì xóa lên xóa xuống, tenlua thì bảo trì cả tháng rồi
    cảm ơn bác trước,