FS [18+] SexWorld (1978) Softcore Cut 1080p Blu-ray AVC DTS-HD MA 2.0

Thảo luận trong '3D, BluRay gốc & Remux' bắt đầu bởi Xperios, 2/4/21.

  1. Xperios Uploader

    173 lượt xem
    Thế Giới Tình Dục 1978

    [​IMG]


    Screenshot


    [​IMG]

    [​IMG]

    [​IMG]



    Media info


    Code:
    General
    ID                          : 0 (0x0)
    Complete name               : SexWorld (1978) Softcore Cut 1080p Blu-ray AVC DTS-HD MA 2.0.m2ts
    Format                      : BDAV
    Format/Info                 : Blu-ray Video
    File size                   : 17.0 GiB
    Duration                    : 1 h 28 min
    Overall bit rate mode       : Variable
    Overall bit rate            : 27.5 Mb/s
    Maximum Overall bit rate    : 48.0 Mb/s
    Video
    ID                          : 4113 (0x1011)
    Menu ID                     : 1 (0x1)
    Format                      : AVC
    Format/Info                 : Advanced Video Codec
    Format profile              : High@L4.1
    Format settings             : CABAC / 3 Ref Frames
    Format settings, CABAC      : Yes
    Format settings, Reference  : 3 frames
    Format settings, GOP        : M=3, N=12
    Codec ID                    : 27
    Duration                    : 1 h 28 min
    Bit rate mode               : Variable
    Bit rate                    : 26.2 Mb/s
    Maximum bit rate            : 35.0 Mb/s
    Width                       : 1 920 pixels
    Height                      : 1 080 pixels
    Display aspect ratio        : 16:9
    Frame rate                  : 23.976 (24000/1001) FPS
    Standard                    : NTSC
    Color space                 : YUV
    Chroma subsampling          : 4:2:0
    Bit depth                   : 8 bits
    Scan type                   : Progressive
    Bits/(Pixel*Frame)          : 0.527
    Stream size                 : 16.2 GiB (95%)
    Color range                 : Limited
    Color primaries             : BT.709
    Transfer characteristics    : BT.709
    Matrix coefficients         : BT.709
    Audio
    ID                          : 4352 (0x1100)
    Menu ID                     : 1 (0x1)
    Format                      : AC-3
    Format/Info                 : Audio Coding 3
    Commercial name             : Dolby Digital
    Codec ID                    : 129
    Duration                    : 1 h 28 min
    Bit rate mode               : Constant
    Bit rate                    : 192 kb/s
    Channel(s)                  : 2 channels
    Channel layout              : L R
    Sampling rate               : 48.0 kHz
    Frame rate                  : 31.250 FPS (1536 SPF)
    Compression mode            : Lossy
    Stream size                 : 122 MiB (1%)
    Language                    : English
    Service kind                : Complete Main
    Text
    ID                          : 4608 (0x1200)
    Menu ID                     : 1 (0x1)
    Format                      : PGS
    Codec ID                    : 144
    Duration                    : 1 h 28 min
    Language                    : English

    Nội dung


    Xem thì biết...


    Download


    Nội dung Ẩn:
    **Link đã được ẩn: Bạn click nút Like để lấy link download nhé.**
    Xem hướng dẫn

    Tải phim về đổi đuôi file (nếu có) tunbong -> m2ts
    P/S: nghiêm cấm trẻ em dưới 18 tuổi, không xem phim chỗ đông người, đeo tai nghe khi xem phim.


    Phụ đề


    ....
    Tags:

    Thấy hay chia sẻ ngay