FS The Rebel Princess (2021) ViE 1080p WEB-DL DD2.0 H.264-BHD ~ Thượng Dương Phú (Chương Tử Di) {Thuyết Minh}

Thảo luận trong 'Phim Bộ' bắt đầu bởi TaiphimHD, 22/3/21.

  1. TaiphimHD Administrator

    416 lượt xem
    The Rebel Princess (2021) ViE 1080p WEB-DL DD2.0 H.264-BHD
    {Thuyết Minh}
    Thượng Dương Phú
    Chương Tử Di, Chu Nhất Vi, Dương Hựu Ninh


    [​IMG]




    [​IMG]

    [​IMG]





    General
    Complete name : D:\The Rebel Princess 2021 ViE WEB-DL 1080p H264 DD2.0\ThuongDuongPhu01.mp4
    Format : MPEG-4
    Format profile : Base Media
    Codec ID : isom (isom/iso2/avc1/mp41)
    File size : 1.44 GiB
    Duration : 45 min 35 s
    Overall bit rate mode : Variable
    Overall bit rate : 4 514 kb/s
    Writing application : Lavf58.45.100

    Video
    ID : 1
    Format : AVC
    Format/Info : Advanced Video Codec
    Format profile : Main@L4
    Format settings : CABAC / 1 Ref Frames
    Format settings, CABAC : Yes
    Format settings, Reference frames : 1 frame
    Format settings, GOP : M=1, N=76
    Codec ID : avc1
    Codec ID/Info : Advanced Video Coding
    Duration : 45 min 35 s
    Duration_FirstFrame : 46 ms
    Bit rate mode : Variable
    Bit rate : 4 249 kb/s
    Maximum bit rate : 12.5 Mb/s
    Width : 1 920 pixels
    Height : 1 080 pixels
    Display aspect ratio : 16:9
    Frame rate mode : Constant
    Frame rate : 25.000 FPS
    Color space : YUV
    Chroma subsampling : 4:2:0
    Bit depth : 8 bits
    Scan type : Progressive
    Bits/(Pixel*Frame) : 0.082
    Stream size : 1.35 GiB (94%)
    Tagged date : UTC 2021-01-11 07:09:23
    Codec configuration box : avcC

    Audio
    ID : 2
    Format : AAC LC
    Format/Info : Advanced Audio Codec Low Complexity
    Codec ID : mp4a-40-2
    Duration : 45 min 35 s
    Bit rate mode : Constant
    Bit rate : 265 kb/s
    Channel(s) : 2 channels
    Channel layout : L R
    Sampling rate : 44.1 kHz
    Frame rate : 43.066 FPS (1024 SPF)
    Compression mode : Lossy
    Stream size : 85.5 MiB (6%)
    Default : Yes
    Language : Vietnamese - Thuyet Minh
    Alternate group : 1
    Tagged date : UTC 2021-01-11 07:09:23





    Các bạn cài PotPlayer để Play phim nhé . Tải PotPlayer ở ĐÂY





    Thượng Dương Phú (Giang Sơn Cố Nhân) được chuyển thể từ tiểu thuyết Đế Vương Nghiệp của Mị Ngữ Giả. Phim kể về Thượng Dương Quận chúa Vương Huyên (Chương Tử Di) xuất thân danh gia vọng tộc, mang huyết mạch hoàng gia cao quý. Nàng có người thương yêu là thanh mai trúc mã, được người người ngưỡng mộ. Vì sống trong loạn thế mà thân bất do kỷ, không thể sống theo ý mình. Tiêu Kỳ (Chu Nhất Vi) xuất thân bần hàn, dùng nghiệp nhà binh đánh trận giết địch, từng bước đoạt quyền đoạt thế trở thành Dự Chương Vương quyền khuynh thiên hạ. Tiêu Kỳ lấy Vương Huyên chỉ là một cuộc hôn nhân chính trị, không tình yêu. Nhưng vận mệnh trớ trêu, từ người dưng hóa người thương, gặp nhau tuy muộn nhưng chính số mệnh đã định sẵn thuộc về nhau. Sau một lần binh biến, Vương Huyên nắm tay Tiêu Kỳ dựng nghiệp Đế vương. Trước mắt nàng là đại nghĩa diệt thân, là nguy cơ trùng trùng. Đến cuối cùng, Vương Huyên bước đi trên con đường lập quốc, đỉnh cao vương quyền hay đợi chờ nàng là đầy rẫy kiếp nạn không thể quay đầu, vạn kiếp bất phục.



    [​IMG]



    Phải chuột vào ảnh, mở với thẻ mới để xem ảnh lớn.

    [​IMG] [​IMG] [​IMG] [​IMG] [​IMG] [​IMG] [​IMG] [​IMG] [​IMG] [​IMG] [​IMG] [​IMG] [​IMG] [​IMG]

    Full Screenshots:

    ☆☆☆ Gallery => Click Vào Link Để Xem Ảnh Lớn ☆☆☆

    [​IMG]



    ☆☆☆ Click Vào Link Để Xem Trailer ☆☆☆

    [​IMG]

    One Link :

    [​IMG]

    [​IMG] Donate => Build PC mới để Encode & Upload phục vụ các bạn ! [​IMG]
    Các bạn Donate click link này để lấy thông tin CK: Donate Ủng Hộ hungdaita


    Số tiền Donate hiện tại mới được 1/3 số cần thiết. Mỗi bác chỉ Donate chút xíu, một người thì ít, nhiều là góm gió thành bão cũng sẽ giúp dc mình rồi !
    Mong các nhà hảo tâm Tiếp Tục ra tay tương trợ ... Xin chân thành cảm ơn !

    Nội dung Ẩn:
    **Link đã được ẩn: Bạn click nút Like để lấy link download nhé.**
    Xem hướng dẫn
    [​IMG]

    [​IMG] Donate => Build PC mới để Encode & Upload phục vụ các bạn ! [​IMG]
    Các bạn Donate click link này để lấy thông tin CK: Donate Ủng Hộ hungdaita


    Số tiền Donate hiện tại mới được 1/3 số cần thiết. Mỗi bác chỉ Donate chút xíu, một người thì ít, nhiều là góm gió thành bão cũng sẽ giúp dc mình rồi !
    Mong các nhà hảo tâm Tiếp Tục ra tay tương trợ ... Xin chân thành cảm ơn !


    Nội dung Ẩn:
    **Link đã được ẩn: Bạn click nút Like để lấy link download nhé.**
    Xem hướng dẫn

    [​IMG]

    Lưu Ý Khẩn: Các bác làm ơn tắt hết mọi loại trình chặn Quảng Cáo như Ad Block Plus ... etc ... trước khi tải Link Files.pw
    Vì nếu không tắt trình chặn Quảng cáo thì mình sẽ không được tính lượt tải về khi các bác tải hoàn tất.
    Như vậy rất thiệt thòi cho Uploader như mình. Các bác thông cảm làm theo hướng dẫn giúp mình nhé !


    Nội dung Ẩn:
    **Link đã được ẩn: Bạn click nút Like để lấy link download nhé.**
    Xem hướng dẫn

    [​IMG]

    Phụ Đề

    Subscene - Subtitles for this Movie

    Mong mọi người đăng bài phản hồi " Phim hay ! Mong bạn chia sẻ thêm nhiều phim hay nữa ! "
    để giúp mình có thêm động lực chia sẻ thêm nhiều phim Bom Tấn cho các bác ! Thanks all !


    [​IMG]

    Bản 1080p :
    The Rebel Princess (2021) ViE 1080p WEB-DL DD2.0 H.264-BHD {Thuyết Minh} = 99.42 GB Full 68 Tập
    duongnhut, rambokhoi, vikiet and 8 others like this.

    Thấy hay chia sẻ ngay