FS Thanh Long Yến Nguyệt Đao - Knights of Valour 2021 1080p WEB-DL H265 AAC

Thảo luận trong 'WEB-DL iTunes & AMZN' bắt đầu bởi Kulee, 23/2/21.

  1. Kulee Thành viên

    83 lượt xem
    Knights of Valour 2021 1080p WEB-DL H265 AAC

    Thanh Long Yến Nguyệt Đao

    [​IMG]


    Trong trận chiến Mạch thành, Quan Vũ bị Phan Chương của quân Ngô giết chết, Thanh Long Yển Nguyệt Đao cũng bị cướp đi từ đó. Quan Hưng, con trai của Quan Vũ may mắn sống sót một lòng báo thù cho cha, khổ luyện võ công chỉ vì muốn đoạt thần binh về. Hai năm sau, Lưu Bị chuẩn bị thảo phạt nước Ngô, lệnh cho các tướng lĩnh trẻ tuổi do Quan Hưng đứng đầu hợp thành một đội bí mật thực thi nhiệm vụ phá hoại trung khu phòng ngự của quân Ngô. Quan Hưng đã vượt qua vô vàn trở ngại, hiểm nguy chồng chất, bất ngờ phát hiện âm mưu của quân Ngô, xoay vần thế cục cuộc chiến trong thời khắc mấu chốt. Cuối cùng, Quan Hưng quyết chiến với kẻ thù giết cha Phan Chương ở thủy trại, liệu Thanh Long Yển Nguyệt Đao sẽ về tay ai đây?

    General
    Unique ID : 254541426441334864819363526898222443440 (0xBF7EE5414298CF0D9DD3E31DC9C52BB0)
    Complete name : G:\Tor\Knights Of Valour 2021.1080P.WEB-DL.H264.AAC.mkv
    Format : Matroska
    Format version : Version 4
    File size : 4.37 GiB
    Duration : 1 h 19 min
    Overall bit rate : 7 845 kb/s
    Encoded date : UTC 2021-02-16 08:00:25
    Writing application : mkvmerge v8.6.1 ('Flying') 32bit
    Writing library : libebml v1.3.3 + libmatroska v1.4.4

    Video
    ID : 1
    Format : AVC
    Format/Info : Advanced Video Codec
    Format profile : High@L3.2
    Format settings : CABAC / 4 Ref Frames
    Format settings, CABAC : Yes
    Format settings, Reference fra : 4 frames
    Codec ID : V_MPEG4/ISO/AVC
    Duration : 1 h 19 min
    Bit rate : 7 684 kb/s
    Width : 1 920 pixels
    Height : 656 pixels
    Display aspect ratio : 2.927
    Frame rate mode : Constant
    Frame rate : 25.000 FPS
    Color space : YUV
    Chroma subsampling : 4:2:0
    Bit depth : 8 bits
    Scan type : Progressive
    Bits/(Pixel*Frame) : 0.244
    Stream size : 4.23 GiB (97%)
    Writing library : x264 core 148 r2638 7599210
    Encoding settings : cabac=1 / ref=3 / deblock=1:0:0 / analyse=0x3:0x113 / me=hex / subme=7 / psy=1 / psy_rd=1.00:0.00 / mixed_ref=1 / me_range=16 / chroma_me=1 / trellis=1 / 8x8dct=1 / cqm=0 / deadzone=21,11 / fast_pskip=1 / chroma_qp_offset=-2 / threads=6 / lookahead_threads=1 / sliced_threads=0 / nr=0 / decimate=1 / interlaced=0 / bluray_compat=0 / constrained_intra=0 / bframes=3 / b_pyramid=2 / b_adapt=1 / b_bias=0 / direct=1 / weightb=1 / open_gop=0 / weightp=2 / keyint=250 / keyint_min=25 / scenecut=40 / intra_refresh=0 / rc_lookahead=40 / rc=abr / mbtree=1 / bitrate=7684 / ratetol=1.0 / qcomp=0.60 / qpmin=0 / qpmax=69 / qpstep=4 / ip_ratio=1.40 / aq=1:1.00
    Default : Yes
    Forced : No

    Audio
    ID : 2
    Format : AAC LC
    Format/Info : Advanced Audio Codec Low Complexity
    Codec ID : A_AAC-2
    Duration : 1 h 19 min
    Bit rate : 256 kb/s
    Channel(s) : 2 channels
    Channel layout : L R
    Sampling rate : 44.1 kHz
    Frame rate : 43.066 FPS (1024 SPF)
    Compression mode : Lossy
    Stream size : 146 MiB (3%)
    Default : Yes
    Forced : No

    Text
    ID : 3
    Format : UTF-8
    Codec ID : S_TEXT/UTF8
    Codec ID/Info : UTF-8 Plain Text
    Duration : 1 h 14 min
    Bit rate : 46 b/s
    Count of elements : 832
    Stream size : 25.4 KiB (0%)
    Title : zinzuno
    Language : Vietnamese
    Default : Yes
    Forced : Yes

    [​IMG]


    Link tải:
    Nội dung Ẩn:
    **Link đã được ẩn: Bạn click nút Like để lấy link download nhé.**
    Xem hướng dẫn
    Các Phim Đã Up Khác
    Nội dung Ẩn:
    **Link đã được ẩn: Bạn click nút Like để lấy link download nhé.**
    Xem hướng dẫn
    SUB VIệt Sẵn
    Subscene

    Thấy hay chia sẻ ngay

  2. tuanson.rea

    tuanson.rea Thành viên mới

    Cám ơn bác thớt up phim <3