FS [4K|HDR] Shazam 2019.ViE - 2160p.UHD.BluRay.X265.10bit.HDR.TrueHD.7.1.Atmos-TERMiNAL - Siêu Anh Hùng Shazam

Thảo luận trong '4K UHD' bắt đầu bởi jjindo, 22/5/20.

Tags:
  1. jjindo Thành viên

    39 lượt xem
    Shazam 2019.ViE - 2160p.UHD.BluRay.X265.10bit.HDR.TrueHD.7.1.Atmos-TERMiNAL
    Siêu Anh Hùng Shazam - Vietsub + Thuyết Minh

    [​IMG]
    Trailer
    Screenshot
    [​IMG]
    INFORMATION
    Code:
    Format : Matroska 
    Format version : Version 4 
    File size : 43.9 GiB 
    Duration : 2 h 11 min 
    Overall bit rate mode : Variable 
    Overall bit rate : 47.7 Mb/s 
    Encoded date : UTC 2020-05-20 17:21:37 
    Writing application : mkvmerge v43.0.0 ('The Quartermaster') 64-bit 
    Writing library : libebml v1.3.10 + libmatroska v1.5.2 
    Cover : Yes 
    Attachments : Cover.png 
    
    Video 
    ID : 1 
    Format : HEVC 
    Format/Info : High Efficiency Video Coding 
    Format profile : Main 10@L5.1@High 
    HDR format : SMPTE ST 2086, HDR10 compatible 
    Codec ID : V_MPEGH/ISO/HEVC 
    Duration : 2 h 11 min 
    Bit rate : 42.0 Mb/s 
    Width : 3 840 pixels 
    Height : 1 608 pixels 
    Display aspect ratio : 2.40:1 
    Frame rate mode : Constant 
    Frame rate : 23.976 (24000/1001) FPS 
    Color space : YUV 
    Chroma subsampling : 4:2:0 (Type 2) 
    Bit depth : 10 bits 
    Bits/(Pixel*Frame) : 0.284 
    Stream size : 38.7 GiB (88%) 
    Writing library : x265 3.1+2-b36c03e4e771:[Windows][GCC 6.3.0][64 bit] 10bit 
    Encoding settings : cpuid=1176575 / frame-threads=5 / numa-pools=36 / wpp / no-pmode / no-pme / no-psnr / no-ssim / log-level=2 / input-csp=1 / input-res=3840x1608 / interlace=0 / total-frames=189484 / level-idc=51 / high-tier=1 / uhd-bd=0 / ref=4 / no-allow-non-conformance / repeat-headers / annexb / aud / hrd / info / hash=0 / no-temporal-layers / no-open-gop / min-keyint=1 / keyint=24 / gop-lookahead=0 / bframes=4 / b-adapt=2 / b-pyramid / bframe-bias=0 / rc-lookahead=25 / lookahead-slices=4 / scenecut=40 / radl=0 / no-splice / no-intra-refresh / ctu=64 / min-cu-size=8 / rect / no-amp / max-tu-size=32 / tu-inter-depth=1 / tu-intra-depth=1 / limit-tu=0 / rdoq-level=2 / dynamic-rd=0.00 / no-ssim-rd / signhide / no-tskip / nr-intra=0 / nr-inter=0 / no-constrained-intra / no-strong-intra-smoothing / max-merge=3 / limit-refs=3 / limit-modes / me=3 / subme=3 / merange=57 / temporal-mvp / weightp / no-weightb / no-analyze-src-pics / deblock=-3:-3 / no-sao / no-sao-non-deblock / rd=4 / no-early-skip / rskip / no-fast-intra / no-tskip-fast / no-cu-lossless / no-b-intra / no-splitrd-skip / rdpenalty=0 / psy-rd=2.00 / psy-rdoq=1.00 / no-rd-refine / no-lossless / cbqpoffs=0 / crqpoffs=0 / rc=crf / crf=17.0 / qcomp=0.60 / qpstep=4 / stats-write=0 / stats-read=0 / vbv-maxrate=160000 / vbv-bufsize=160000 / vbv-init=0.9 / crf-max=0.0 / crf-min=0.0 / ipratio=1.40 / pbratio=1.30 / aq-mode=2 / aq-strength=1.00 / cutree / zone-count=0 / no-strict-cbr / qg-size=32 / no-rc-grain / qpmax=69 / qpmin=0 / no-const-vbv / sar=1 / overscan=0 / videoformat=5 / range=0 / colorprim=9 / transfer=16 / colormatrix=9 / chromaloc=1 / chromaloc-top=2 / chromaloc-bottom=2 / display-window=0 / master-display=G(13250,34500)B(7500,3000)R(34000,16000)WP(15635,16450)L(40000000,50)cll=1351,384 / min-luma=0 / max-luma=1023 / log2-max-poc-lsb=8 / vui-timing-info / vui-hrd-info / slices=1 / no-opt-qp-pps / no-opt-ref-list-length-pps / no-multi-pass-opt-rps / scenecut-bias=0.05 / no-opt-cu-delta-qp / no-aq-motion / hdr / hdr-opt / no-dhdr10-opt / no-idr-recovery-sei / analysis-reuse-level=5 / scale-factor=0 / refine-intra=0 / refine-inter=0 / refine-mv=0 / refine-ctu-distortion=0 / no-limit-sao / ctu-info=0 / no-lowpass-dct / refine-analysis-type=0 / copy-pic=1 / max-ausize-factor=1.0 / no-dynamic-refine / no-single-sei / no-hevc-aq / no-svt / no-field / qp-adaptation-range=1.00 
    Default : Yes 
    Forced : No 
    Color range : Limited 
    Color primaries : BT.2020 
    Transfer characteristics : PQ 
    Matrix coefficients : BT.2020 non-constant 
    Mastering display color primaries : Display P3 
    Mastering display luminance : min: 0.0050 cd/m2, max: 4000 cd/m2 
    Maximum Content Light Level : 1351 cd/m2 
    Maximum Frame-Average Light Level : 384 cd/m2 
    
    Audio #1 
    ID : 2 
    Format : MLP FBA 16-ch 
    Format/Info : Meridian Lossless Packing FBA with 16-channel presentation 
    Commercial name : Dolby TrueHD with Dolby Atmos 
    Codec ID : A_TRUEHD 
    Duration : 2 h 11 min 
    Bit rate mode : Variable 
    Bit rate : 3 645 kb/s 
    Maximum bit rate : 5 931 kb/s 
    Channel(s) : 8 channels 
    Channel layout : L R C LFE Ls Rs Lb Rb 
    Sampling rate : 48.0 kHz 
    Frame rate : 1 200.000 FPS (40 SPF) 
    Compression mode : Lossless 
    Stream size : 3.35 GiB (8%) 
    Language : English 
    Default : No 
    Forced : No 
    Number of dynamic objects : 15 
    Bed channel count : 1 channel 
    Bed channel configuration : LFE 
    
    Audio #2 
    ID : 3 
    Format : AC-3 
    Format/Info : Audio Coding 3 
    Commercial name : Dolby Digital 
    Codec ID : A_AC3 
    Duration : 2 h 11 min 
    Bit rate mode : Constant 
    Bit rate : 448 kb/s 
    Channel(s) : 6 channels 
    Channel layout : L R C LFE Ls Rs 
    Sampling rate : 48.0 kHz 
    Frame rate : 31.250 FPS (1536 SPF) 
    Compression mode : Lossy 
    Stream size : 422 MiB (1%) 
    Language : English 
    Service kind : Complete Main 
    Default : No 
    Forced : No 
    
    Audio #3 
    ID : 5 
    Format : DTS ES 
    Format/Info : Digital Theater Systems 
    Commercial name : DTS-ES Matrix 
    Codec ID : A_DTS 
    Duration : 2 h 11 min 
    Bit rate mode : Constant 
    Bit rate : 1 509 kb/s 
    Channel(s) : 6 channels 
    Channel(s)_Original : 7 channels 
    ChannelLayout_Original : C L R Ls Rs Cs LFE 
    Sampling rate : 48.0 kHz 
    Frame rate : 93.750 FPS (512 SPF) 
    Bit depth : 24 bits 
    Compression mode : Lossy 
    Stream size : 1.39 GiB (3%) 
    Language : Vietnamese 
    Default : Yes 
    Forced : Yes 
    
    Text #1 
    ID : 4 
    Format : PGS 
    Muxing mode : zlib 
    Codec ID : S_HDMV/PGS 
    Codec ID/Info : Picture based subtitle format used on BDs/HD-DVDs 
    Duration : 2 h 11 min 
    Bit rate : 37.5 kb/s 
    Count of elements : 4310 
    Stream size : 35.3 MiB (0%) 
    Title : English SDH 
    Language : English 
    Default : No 
    Forced : No 
    
    Text #2 
    ID : 6 
    Format : UTF-8 
    Codec ID : S_TEXT/UTF8 
    Codec ID/Info : UTF-8 Plain Text 
    Duration : 2 h 11 min 
    Bit rate : 74 b/s 
    Count of elements : 1920 
    Stream size : 71.6 KiB (0%) 
    Language : Vietnamese 
    Default : Yes 
    Forced : Yes 
    

    DOWNLOAD
    Shazam 2019 - 2160p + 1080p
    Nội dung Ẩn:
    **Link đã được ẩn: Bạn click nút Like để lấy link download nhé.**
    Xem hướng dẫn

    SUBTITLE
    Đã MUX Sẵn

    Các Phim khác
    Tags:

    Thấy hay chia sẻ ngay