FS [Tâm Lý] Black Gold 2011 - 1080p.BluRay.x264.DTS-FGT - Vàng Đen

Thảo luận trong '720p & 1080p' bắt đầu bởi jjindo, 13/5/20.

Tags:
  1. jjindo Thành viên

    89 lượt xem
    Black Gold 2011 - 1080p.BluRay.x264.DTS-FGT
    Vàng Đen - Vietsub

    [​IMG]
    Trailer
    Screenshot
    [​IMG]
    INFORMATION
    Code:
    Format : Matroska 
    Format version : Version 4 
    File size : 13.1 GiB 
    Duration : 2 h 10 min 
    Overall bit rate : 14.4 Mb/s 
    Movie name : Black.Gold.2011.1080p.BluRay.x264.DTS-FGT 
    Encoded date : UTC 2020-05-13 10:48:14 
    Writing application : mkvmerge v43.0.0 ('The Quartermaster') 64-bit 
    Writing library : libebml v1.3.10 + libmatroska v1.5.2 
    
    Video 
    ID : 1 
    Format : AVC 
    Format/Info : Advanced Video Codec 
    Format profile : High@L4.1 
    Format settings : CABAC / 5 Ref Frames 
    Format settings, CABAC : Yes 
    Format settings, Reference frames : 5 frames 
    Codec ID : V_MPEG4/ISO/AVC 
    Duration : 2 h 10 min 
    Bit rate : 12.9 Mb/s 
    Width : 1 920 pixels 
    Height : 820 pixels 
    Display aspect ratio : 2.35:1 
    Frame rate mode : Constant 
    Frame rate : 23.976 (24000/1001) FPS 
    Color space : YUV 
    Chroma subsampling : 4:2:0 
    Bit depth : 8 bits 
    Scan type : Progressive 
    Bits/(Pixel*Frame) : 0.342 
    Stream size : 11.7 GiB (90%) 
    Writing library : x264 core 120 r2164 da19765 
    Encoding settings : cabac=1 / ref=5 / deblock=1:-3:-3 / analyse=0x3:0x133 / me=umh / subme=10 / psy=1 / psy_rd=1.00:0.00 / mixed_ref=1 / me_range=48 / chroma_me=1 / trellis=2 / 8x8dct=1 / cqm=0 / deadzone=21,11 / fast_pskip=1 / chroma_qp_offset=-2 / threads=12 / sliced_threads=0 / nr=0 / decimate=0 / interlaced=0 / bluray_compat=0 / constrained_intra=0 / bframes=7 / b_pyramid=2 / b_adapt=2 / b_bias=0 / direct=3 / weightb=1 / open_gop=0 / weightp=2 / keyint=250 / keyint_min=23 / scenecut=40 / intra_refresh=0 / rc_lookahead=60 / rc=2pass / mbtree=0 / bitrate=12921 / ratetol=1.0 / qcomp=0.60 / qpmin=0 / qpmax=69 / qpstep=4 / cplxblur=20.0 / qblur=0.5 / vbv_maxrate=30000 / vbv_bufsize=30000 / nal_hrd=none / ip_ratio=1.50 / pb_ratio=1.30 / aq=1:1.00 
    Language : English 
    Default : Yes 
    Forced : No 
    
    Audio 
    ID : 2 
    Format : DTS 
    Format/Info : Digital Theater Systems 
    Codec ID : A_DTS 
    Duration : 2 h 10 min 
    Bit rate mode : Constant 
    Bit rate : 1 509 kb/s 
    Channel(s) : 6 channels 
    Channel layout : C L R Ls Rs LFE 
    Sampling rate : 48.0 kHz 
    Frame rate : 93.750 FPS (512 SPF) 
    Bit depth : 16 bits 
    Compression mode : Lossy 
    Stream size : 1.37 GiB (10%) 
    Language : English 
    Default : Yes 
    Forced : No 
    
    Text #1 
    ID : 3 
    Format : UTF-8 
    Codec ID : S_TEXT/UTF8 
    Codec ID/Info : UTF-8 Plain Text 
    Duration : 2 h 10 min 
    Bit rate : 34 b/s 
    Count of elements : 1390 
    Stream size : 32.5 KiB (0%) 
    Language : English 
    Default : No 
    Forced : No 
    
    Text #2 
    ID : 4 
    Format : UTF-8 
    Codec ID : S_TEXT/UTF8 
    Codec ID/Info : UTF-8 Plain Text 
    Duration : 2 h 7 min 
    Bit rate : 51 b/s 
    Count of elements : 1388 
    Stream size : 48.5 KiB (0%) 
    Language : Vietnamese 
    Default : Yes 
    Forced : Yes 
    

    DOWNLOAD
    Nội dung Ẩn:
    **Link đã được ẩn: Bạn click nút Like để lấy link download nhé.**
    Xem hướng dẫn

    SUBTITLE
    Đã MUX Sẵn

    Các Phim khác
    Tags:
    nquang81, ly thai, tieutuym and 6 others like this.

    Thấy hay chia sẻ ngay