FS Hitman: Agent Jun 2020 - 1080p.HDRip.AAC.H.264.NonDRM - Sát Thủ Vô Cùng Cực

Thảo luận trong 'mHD & BRRip' bắt đầu bởi jjindo, 30/3/20.

  1. jjindo Thành viên

    358 lượt xem
    Hitman: Agent Jun 2020 - 1080p.HDRip.AAC.H.264.NonDRM
    Sát Thủ Vô Cùng Cực - Vietsub

    [​IMG]
    Screenshot
    [​IMG]
    INFORMATION
    Code:
    Format : Matroska 
    Format version : Version 4 
    File size : 4.17 GiB 
    Duration : 1 h 49 min 
    Overall bit rate : 5 427 kb/s 
    Encoded date : UTC 2020-03-29 23:01:49 
    Writing application : mkvmerge v43.0.0 ('The Quartermaster') 64-bit 
    Writing library : libebml v1.3.10 + libmatroska v1.5.2 
    
    Video 
    ID : 1 
    Format : AVC 
    Format/Info : Advanced Video Codec 
    Format profile : High@L4 
    Format settings : CABAC / 4 Ref Frames 
    Format settings, CABAC : Yes 
    Format settings, Reference frames : 4 frames 
    Format settings, GOP : M=4, N=23 
    Codec ID : V_MPEG4/ISO/AVC 
    Duration : 1 h 49 min 
    Bit rate : 5 120 kb/s 
    Width : 1 920 pixels 
    Height : 1 080 pixels 
    Display aspect ratio : 16:9 
    Frame rate mode : Constant 
    Frame rate : 23.976 (24000/1001) FPS 
    Color space : YUV 
    Chroma subsampling : 4:2:0 
    Bit depth : 8 bits 
    Scan type : Progressive 
    Bits/(Pixel*Frame) : 0.103 
    Stream size : 3.92 GiB (94%) 
    Writing library : x264 core 148 r2768 d32d7bf 
    Encoding settings : cabac=1 / ref=3 / deblock=1:0:0 / analyse=0x3:0x113 / me=hex / subme=8 / psy=1 / psy_rd=1.00:0.00 / mixed_ref=1 / me_range=16 / chroma_me=1 / trellis=2 / 8x8dct=1 / cqm=0 / deadzone=21,11 / fast_pskip=1 / chroma_qp_offset=-2 / threads=24 / lookahead_threads=4 / sliced_threads=0 / nr=0 / decimate=1 / interlaced=0 / bluray_compat=0 / stitchable=1 / constrained_intra=0 / bframes=3 / b_pyramid=2 / b_adapt=1 / b_bias=0 / direct=3 / weightb=1 / open_gop=0 / weightp=2 / keyint=23 / keyint_min=12 / scenecut=40 / intra_refresh=0 / rc_lookahead=23 / rc=2pass / mbtree=1 / bitrate=5120 / ratetol=1.0 / qcomp=0.60 / qpmin=0 / qpmax=69 / qpstep=4 / cplxblur=20.0 / qblur=0.5 / vbv_maxrate=35840 / vbv_bufsize=35840 / nal_hrd=none / filler=0 / ip_ratio=1.40 / aq=1:1.00 
    Default : Yes 
    Forced : No 
    
    Audio 
    ID : 2 
    Format : AAC LC 
    Format/Info : Advanced Audio Codec Low Complexity 
    Codec ID : A_AAC-2 
    Duration : 1 h 49 min 
    Bit rate : 320 kb/s 
    Channel(s) : 2 channels 
    Channel layout : L R 
    Sampling rate : 48.0 kHz 
    Frame rate : 46.875 FPS (1024 SPF) 
    Compression mode : Lossy 
    Stream size : 252 MiB (6%) 
    Default : Yes 
    Forced : No 
    
    Text 
    ID : 3 
    Format : ASS 
    Codec ID : S_TEXT/ASS 
    Codec ID/Info : Advanced Sub Station Alpha 
    Duration : 1 h 42 min 
    Bit rate : 154 b/s 
    Count of elements : 1917 
    Compression mode : Lossless 
    Stream size : 116 KiB (0%) 
    Language : Vietnamese 
    Default : Yes 
    Forced : Yes 
    

    DOWNLOAD
    Nội dung Ẩn:
    **Link đã được ẩn: Bạn click nút Like để lấy link download nhé.**
    Xem hướng dẫn

    SUBTITLE
    Đã MUX Sẵn
    Tags:

    Thấy hay chia sẻ ngay