FS Underwater 2020 - 1080p.HDRip.x264.AAC2.0-STUTTERSHIT - Kẻ Săn Mồi Biển Sâu

Thảo luận trong 'mHD & BRRip' bắt đầu bởi jjindo, 27/3/20 lúc 15:57.

  1. jjindo Thành viên

    59 lượt xem
    Underwater 2020 - 1080p.HDRip.x264.AAC2.0-STUTTERSHIT
    Kẻ Săn Mồi Biển Sâu - Vietsub

    [​IMG]
    Screenshot
    [​IMG]
    INFORMATION
    Code:
    ideo
    ID                                       : 1
    Format                                   : AVC
    Format/Info                              : Advanced Video Codec
    Format profile                           : High@L4.1
    Format settings                          : CABAC / 4 Ref Frames
    Format settings, CABAC                   : Yes
    Format settings, Reference frames        : 4 frames
    Codec ID                                 : V_MPEG4/ISO/AVC
    Duration                                 : 1 h 33 min
    Bit rate                                 : 4 796 kb/s
    Width                                    : 1 920 pixels
    Height                                   : 1 080 pixels
    Display aspect ratio                     : 16:9
    Frame rate mode                          : Constant
    Frame rate                               : 29.970 (30000/1001) FPS
    Color space                              : YUV
    Chroma subsampling                       : 4:2:0
    Bit depth                                : 8 bits
    Scan type                                : Progressive
    Bits/(Pixel*Frame)                       : 0.077
    Stream size                              : 3.15 GiB (95%)
    Title                                    : Underwater.2020.1080p.HDRip.x264.AAC2.0-STUTTERSHIT
    Language                                 : English
    Default                                  : Yes
    Forced                                   : No
    Color range                              : Limited
    Color primaries                          : BT.709
    Transfer characteristics                 : BT.709
    Matrix coefficients                      : BT.709
    
    Audio
    ID                                       : 2
    Format                                   : AAC LC
    Format/Info                              : Advanced Audio Codec Low Complexity
    Codec ID                                 : A_AAC-2
    Duration                                 : 1 h 33 min
    Bit rate                                 : 256 kb/s
    Channel(s)                               : 2 channels
    Channel layout                           : L R
    Sampling rate                            : 48.0 kHz
    Frame rate                               : 46.875 FPS (1024 SPF)
    Compression mode                         : Lossy
    Stream size                              : 172 MiB (5%)
    Title                                    : Underwater.2020.1080p.HDRip.x264.AAC2.0-STUTTERSHIT
    Language                                 : English
    Default                                  : Yes
    Forced                                   : No
    
    Text
    ID                                       : 3
    Format                                   : UTF-8
    Codec ID                                 : S_TEXT/UTF8
    Codec ID/Info                            : UTF-8 Plain Text
    Duration                                 : 1 h 33 min
    Bit rate                                 : 59 b/s
    Count of elements                        : 1145
    Stream size                              : 40.7 KiB (0%)
    Language                                 : Vietnamese
    Default                                  : Yes
    Forced                                   : Yes
    

    DOWNLOAD
    Nội dung Ẩn:
    **Link đã được ẩn: Bạn click nút Like để lấy link download nhé.**
    Xem hướng dẫn

    SUBTITLE
    Đã MUX Sẵn
    Tags:
    thanhtrucdn, depzai8x, 9th and 2 others like this.

    Thấy hay chia sẻ ngay