FS The Occupant 2020 - 1080p.NF.WEB-DL.DDP5.1.x264-NTb - Chìa Khóa Về Nhà Tôi

Thảo luận trong 'WEB-DL iTunes & AMZN' bắt đầu bởi jjindo, 26/3/20 lúc 01:45.

  1. jjindo Thành viên

    69 lượt xem
    The Occupant 2020 - 1080p.NF.WEB-DL.DDP5.1.x264-NTb
    Chìa Khóa Về Nhà Tôi- Vietsub

    [​IMG]
    Screenshot
    [​IMG]
    INFORMATION
    Code:
    Format                         : Matroska
    Format version                 : Version 4 / Version 2
    File size                      : 2.01 GiB
    Duration                       : 1h 43mn
    Overall bit rate mode          : Variable
    Overall bit rate               : 2 779 Kbps
    Encoded date                   : UTC 2020-03-25 18:09:01
    Writing application            : mkvmerge v43.0.0 ('The Quartermaster') 64-bit
    Writing library                : libebml v1.3.10 + libmatroska v1.5.2
    
    Video
    ID                             : 1
    Format                         : AVC
    Format/Info                    : Advanced Video Codec
    Format profile                 : Main@L4
    Format settings, CABAC         : Yes
    Format settings, ReFrames      : 3 frames
    Codec ID                       : V_MPEG4/ISO/AVC
    Duration                       : 1h 43mn
    Bit rate mode                  : Variable
    Bit rate                       : 2 150 Kbps
    Maximum bit rate               : 3 225 Kbps
    Width                          : 1 920 pixels
    Height                         : 1 080 pixels
    Display aspect ratio           : 16:9
    Frame rate mode                : Constant
    Frame rate                     : 24.000 fps
    Color space                    : YUV
    Chroma subsampling             : 4:2:0
    Bit depth                      : 8 bits
    Scan type                      : Progressive
    Bits/(Pixel*Frame)             : 0.043
    Stream size                    : 1.55 GiB (77%)
    Writing library                : x264 core 148 r2715 7e75228
    Encoding settings              : cabac=1 / ref=3 / deblock=1:0:0 / analyse=0x1:0x111 / me=umh / subme=10 / psy=1 / psy_rd=1.00:0.00 / mixed_ref=1 / me_range=24 / chroma_me=1 / trellis=2 / 8x8dct=0 / cqm=0 / deadzone=21,11 / fast_pskip=1 / chroma_qp_offset=-2 / threads=8 / lookahead_threads=1 / sliced_threads=0 / nr=0 / decimate=1 / interlaced=0 / bluray_compat=0 / stitchable=1 / constrained_intra=0 / bframes=2 / b_pyramid=0 / b_adapt=2 / b_bias=0 / direct=3 / weightb=1 / open_gop=0 / weightp=2 / keyint=250 / keyint_min=24 / scenecut=0 / intra_refresh=0 / rc_lookahead=48 / rc=2pass / mbtree=1 / bitrate=2150 / ratetol=1.0 / qcomp=0.50 / qpmin=6 / qpmax=51 / qpstep=4 / cplxblur=20.0 / qblur=0.5 / vbv_maxrate=3225 / vbv_bufsize=4300 / nal_hrd=vbr / filler=0 / ip_ratio=1.40 / aq=1:1.00
    Default                        : Yes
    Forced                         : No
    
    Audio
    ID                             : 2
    Format                         : E-AC-3
    Format/Info                    : Audio Coding 3
    Format settings, Endianness    : Big
    Codec ID                       : A_EAC3
    Duration                       : 1h 43mn
    Bit rate mode                  : Constant
    Bit rate                       : 640 Kbps
    Channel(s)                     : 6 channels
    Channel positions              : Front: L C R, Side: L R, LFE
    Sampling rate                  : 48.0 KHz
    Frame rate                     : 187.500 fps (256 spf)
    Compression mode               : Lossy
    Stream size                    : 475 MiB (23%)
    Language                       : Spanish
    Default                        : Yes
    Forced                         : No
    
    Text #1
    ID                             : 3
    Format                         : UTF-8
    Codec ID                       : S_TEXT/UTF8
    Codec ID/Info                  : UTF-8 Plain Text
    Duration                       : 1h 43mn
    Bit rate                       : 44 bps
    Count of elements              : 1239
    Stream size                    : 33.6 KiB (0%)
    Language                       : English
    Default                        : No
    Forced                         : No
    
    Text #2
    ID                             : 4
    Format                         : UTF-8
    Codec ID                       : S_TEXT/UTF8
    Codec ID/Info                  : UTF-8 Plain Text
    Duration                       : 1h 43mn
    Bit rate                       : 66 bps
    Count of elements              : 1254
    Stream size                    : 49.9 KiB (0%)
    Language                       : Vietnamese
    Default                        : Yes
    Forced                         : Yes

    DOWNLOAD
    Nội dung Ẩn:
    **Link đã được ẩn: Bạn click nút Like để lấy link download nhé.**
    Xem hướng dẫn

    SUBTITLE
    Đã MUX Sẵn
    Tags:

    Thấy hay chia sẻ ngay