FS The Lion King 2019 ViE 2160p UHD Blu-ray Remux HEVC TrueHD Atmos 7.1-HDT ~ Vua Sư Tử {Sub Việt | Thuyết Minh}

Thảo luận trong '4K UHD' bắt đầu bởi TaiphimHD, 14/10/19.

  1. TaiphimHD Administrator

    124 lượt xem
    The Lion King 2019 ViE 2160p UHD Blu-ray Remux HEVC TrueHD Atmos 7.1-HDT
    {Sub Việt | Thuyết Minh}
    Vua Sư Tử
    Donald Glover, Beyoncé, Seth Rogen


    [​IMG]



    [​IMG]

    [​IMG]







    General
    Unique ID : 158286932509296072312780333782214195097 (0x7714F44DD2B346689079CDC3D5FD3799)
    Complete name : The Lion King 2019 ViE 2160p UHD Blu-ray Remux HEVC TrueHD Atmos 7.1-HDT.mkv
    Format : Matroska
    Format version : Version 4
    File size : 54.3 GiB
    Duration : 2 h 0 min
    Overall bit rate mode : Variable
    Overall bit rate : 64.8 Mb/s
    Movie name : The Lion King 2019 ViE 2160p UHD Blu-ray Remux HEVC TrueHD Atmos 7.1-HDT
    Encoded date : UTC 2019-10-13 16:11:33
    Writing application : mkvmerge v38.0.0 ('The Silent Type') 64-bit
    Writing library : libebml v1.3.9 + libmatroska v1.5.2

    Video
    ID : 1
    Format : HEVC
    Format/Info : High Efficiency Video Coding
    Format profile : Main 10@L5.1@High
    HDR format : SMPTE ST 2086, HDR10 compatible
    Codec ID : V_MPEGH/ISO/HEVC
    Duration : 1 h 58 min
    Bit rate : 54.3 Mb/s
    Width : 3 840 pixels
    Height : 2 160 pixels
    Display aspect ratio : 16:9
    Frame rate mode : Constant
    Frame rate : 23.976 (24000/1001) FPS
    Color space : YUV
    Chroma subsampling : 4:2:0 (Type 2)
    Bit depth : 10 bits
    Bits/(Pixel*Frame) : 0.273
    Stream size : 44.8 GiB (83%)
    Writing library : ATEME Titan File 3.9.0 (4.9.0.0)
    Language : English
    Default : Yes
    Forced : No
    Color range : Limited
    Color primaries : BT.2020
    Transfer characteristics : PQ
    Matrix coefficients : BT.2020 non-constant
    Mastering display color primaries : Display P3
    Mastering display luminance : min: 0.0001 cd/m2, max: 1000 cd/m2

    Audio #1
    ID : 2
    Format : DTS ES XLL
    Format/Info : Digital Theater Systems
    Commercial name : DTS-HD Master Audio
    Codec ID : A_DTS
    Duration : 1 h 58 min
    Bit rate mode : Variable
    Bit rate : 5 090 kb/s
    Channel(s) : 8 channels
    Channel layout : C L R Ls Rs LFE Lb Rb
    Sampling rate : 48.0 kHz
    Frame rate : 93.750 FPS (512 SPF)
    Bit depth : 24 bits
    Compression mode : Lossless
    Stream size : 4.20 GiB (8%)
    Language : Vietnamese
    Default : Yes
    Forced : Yes

    Audio #2
    ID : 3
    Format : AC-3
    Format/Info : Audio Coding 3
    Commercial name : Dolby Digital
    Codec ID : A_AC3
    Duration : 1 h 58 min
    Bit rate mode : Constant
    Bit rate : 640 kb/s
    Channel(s) : 6 channels
    Channel layout : L R C LFE Ls Rs
    Sampling rate : 48.0 kHz
    Frame rate : 31.250 FPS (1536 SPF)
    Compression mode : Lossy
    Stream size : 541 MiB (1%)
    Language : Vietnamese
    Service kind : Complete Main
    Default : No
    Forced : No

    Audio #3
    ID : 4
    Format : MLP FBA 16-ch
    Format/Info : Meridian Lossless Packing FBA with 16-channel presentation
    Commercial name : Dolby TrueHD with Dolby Atmos
    Codec ID : A_TRUEHD
    Duration : 1 h 58 min
    Bit rate mode : Variable
    Bit rate : 4 929 kb/s
    Maximum bit rate : 7 332 kb/s
    Channel(s) : 8 channels
    Channel layout : L R C LFE Ls Rs Lb Rb
    Sampling rate : 48.0 kHz
    Frame rate : 1 200.000 FPS (40 SPF)
    Compression mode : Lossless
    Stream size : 4.07 GiB (7%)
    Title : TrueHD Atmos 7.1
    Language : English
    Default : No
    Forced : No
    Number of dynamic objects : 13
    Bed channel count : 1 channel
    Bed channel configuration : LFE

    Audio #4
    ID : 5
    Format : AC-3
    Format/Info : Audio Coding 3
    Commercial name : Dolby Digital
    Codec ID : A_AC3
    Duration : 1 h 58 min
    Bit rate mode : Constant
    Bit rate : 640 kb/s
    Channel(s) : 6 channels
    Channel layout : L R C LFE Ls Rs
    Sampling rate : 48.0 kHz
    Frame rate : 31.250 FPS (1536 SPF)
    Compression mode : Lossy
    Stream size : 541 MiB (1%)
    Title : AC3 5.1
    Language : English
    Service kind : Complete Main
    Default : No
    Forced : No

    Text #1
    ID : 6
    Format : UTF-8
    Codec ID : S_TEXT/UTF8
    Codec ID/Info : UTF-8 Plain Text
    Duration : 1 h 59 min
    Bit rate : 65 b/s
    Count of elements : 1310
    Stream size : 57.1 KiB (0%)
    Language : Vietnamese
    Default : No
    Forced : No

    Text #2
    ID : 7
    Format : PGS
    Muxing mode : zlib
    Codec ID : S_HDMV/PGS
    Codec ID/Info : Picture based subtitle format used on BDs/HD-DVDs
    Duration : 1 h 52 min
    Bit rate : 37.3 kb/s
    Count of elements : 3420
    Stream size : 29.8 MiB (0%)
    Title : English (SDH)
    Language : English
    Default : No
    Forced : No

    Text #3
    ID : 8
    Format : PGS
    Muxing mode : zlib
    Codec ID : S_HDMV/PGS
    Codec ID/Info : Picture based subtitle format used on BDs/HD-DVDs
    Duration : 1 h 56 min
    Bit rate : 31.4 kb/s
    Count of elements : 2788
    Stream size : 26.2 MiB (0%)
    Title : French (Canadian)
    Language : French
    Default : No
    Forced : No

    Text #4
    ID : 9
    Format : PGS
    Muxing mode : zlib
    Codec ID : S_HDMV/PGS
    Codec ID/Info : Picture based subtitle format used on BDs/HD-DVDs
    Duration : 1 h 55 min
    Bit rate : 25.9 kb/s
    Count of elements : 2556
    Stream size : 21.5 MiB (0%)
    Title : French (Parisian)
    Language : French
    Default : No
    Forced : No

    Text #5
    ID : 10
    Format : PGS
    Muxing mode : zlib
    Codec ID : S_HDMV/PGS
    Codec ID/Info : Picture based subtitle format used on BDs/HD-DVDs
    Duration : 1 h 55 min
    Bit rate : 28.9 kb/s
    Count of elements : 2850
    Stream size : 24.0 MiB (0%)
    Title : German
    Language : German
    Default : No
    Forced : No

    Text #6
    ID : 11
    Format : PGS
    Muxing mode : zlib
    Codec ID : S_HDMV/PGS
    Codec ID/Info : Picture based subtitle format used on BDs/HD-DVDs
    Duration : 1 h 55 min
    Bit rate : 28.1 kb/s
    Count of elements : 2716
    Stream size : 23.3 MiB (0%)
    Title : Italian
    Language : Italian
    Default : No
    Forced : No

    Text #7
    ID : 12
    Format : PGS
    Muxing mode : zlib
    Codec ID : S_HDMV/PGS
    Codec ID/Info : Picture based subtitle format used on BDs/HD-DVDs
    Duration : 1 h 55 min
    Bit rate : 25.9 kb/s
    Count of elements : 2716
    Stream size : 21.4 MiB (0%)
    Title : Norwegian
    Language : Norwegian
    Default : No
    Forced : No

    Text #8
    ID : 13
    Format : PGS
    Muxing mode : zlib
    Codec ID : S_HDMV/PGS
    Codec ID/Info : Picture based subtitle format used on BDs/HD-DVDs
    Duration : 1 h 46 min
    Bit rate : 32.7 kb/s
    Count of elements : 2742
    Stream size : 24.8 MiB (0%)
    Title : Spanish (Latin American)
    Language : Spanish
    Default : No
    Forced : No

    Text #9
    ID : 14
    Format : PGS
    Muxing mode : zlib
    Codec ID : S_HDMV/PGS
    Codec ID/Info : Picture based subtitle format used on BDs/HD-DVDs
    Duration : 1 h 55 min
    Bit rate : 24.1 kb/s
    Count of elements : 1890
    Stream size : 20.0 MiB (0%)
    Title : Swedish
    Language : Swedish
    Default : No
    Forced : No

    Menu
    00:00:00.000 : en:"Circle Of Life/Nants' Ingonyama"
    00:04:50.499 : en:"Life's Not Fair"
    00:10:51.067 : en:"Everything The Light Touches"
    00:17:47.692 : en:"I Just Can't Wait To Be King"
    00:23:53.015 : en:Elephant Graveyard
    00:30:00.132 : en:Under The Stars
    00:33:05.066 : en:"Be Prepared"
    00:37:09.310 : en:Stampede
    00:43:42.912 : en:Scar Takes Over
    00:50:47.336 : en:Timon And Pumbaa
    00:55:02.716 : en:"Hakuna Matata"
    00:59:48.460 : en:Scar's Kingdom
    01:06:27.233 : en:"Line Of Indifference"
    01:14:32.093 : en:"The Lion Sleeps Tonight"
    01:18:26.410 : en:"Can You Feel The Love Tonight"
    01:23:07.900 : en:"He Lives In You"
    01:28:04.654 : en:"Spirit"
    01:33:10.877 : en:Simba Confronts Scar
    01:37:13.745 : en:Battle For Pride Rock
    01:44:39.190 : en:The Rightful King
    01:47:47.336 : en:End Credits/"Never Too Late"









    Vua Sư Tử (The Lion King Live-action) là một bộ phim điện ảnh chính kịch Mỹ, phim cho tuổi mới lớn sắp tới của đạo diễn Jon Favreau và được sản xuất bởi Walt Disney Pictures dựa trên bộ phim hoạt hình cùng tên năm 1994. Vua Sư Tử Live Action này là một bộ phim mới phiên bản tái phát hành người đóng 3D, hay gọi cách khác là bản làm lại của Vua Sử Tử.



    [​IMG]

    Phải chuột vào ảnh, mở với thẻ mới để xem ảnh lớn.

    [​IMG] [​IMG] [​IMG] [​IMG] [​IMG] [​IMG]

    Full Screenshots:

    ☆☆☆ Gallery => Click Vào Link Để Xem Ảnh Lớn ☆☆☆

    [​IMG]



    ☆☆☆ Click Vào Link Để Xem Trailer ☆☆☆

    [​IMG]

    One Link :

    [​IMG]

    Nội dung Ẩn:
    **Link đã được ẩn: Bạn click nút Like để lấy link download nhé.**
    Xem hướng dẫn
    [​IMG]

    Nội dung Ẩn:
    **Link đã được ẩn: Bạn click nút Like để lấy link download nhé.**
    Xem hướng dẫn

    [​IMG]

    Phụ Đề Việt: {Đã Có}

    https://www.fshare.vn/file/W28OGZBDJF6C
    Subscene - Subtitles for this Movie


    [​IMG]
    Last edited: 14/10/19
    Thi:!, loko, thanhluantkcb and 23 others like this.

    Thấy hay chia sẻ ngay

  2. Kphung

    Kphung Thành viên mới

    Ngon, thanks bác