4S Planet Earth II 2016 Disc 1 Blu-ray 1080p AVC DTS-HD MA 5.1-NetBD | Hành Tinh Trái Đất II { Sub Việt }

Thảo luận trong 'Phim Tài liệu' bắt đầu bởi hoanglonghd, 31/12/16.

  1. hoanglonghd Uploader

    234 lượt xem
    Planet Earth II 2016 Disc 1 Blu-ray 1080p AVC DTS-HD MA 5.1-NetBD
    Hành Tinh Trái Đất II



    [​IMG]



    Code:
    QUICK SUMMARY:
    
    Disc Title: PLANET_EARTH_II_D1_NETBD
    Disc Size: 45,379,001,906 bytes
    Protection: AACS
    BD-Java: No
    Playlist: 00017.MPLS
    Size: 44,867,162,112 bytes
    Length: 2:54:54.080
    Total Bitrate: 34.20 Mbps
    Video: MPEG-4 AVC Video / 29836 kbps / 1080i / 25 fps / 16:9 / High Profile 4.1
    Audio: English / DTS-HD Master Audio / 5.1 / 48 kHz / 2547 kbps / 16-bit (DTS Core: 5.1 / 48 kHz / 1509 kbps / 16-bit)
    Subtitle: Vietnamese / 53.813 kbps
    * Subtitle: English / 30.437 kbps
    
    DISC INFO:
    
    Disc Title:     PLANET_EARTH_II_D1_NETBD
    Disc Size:      45,379,001,906 bytes
    Protection:     AACS
    BD-Java:        No
    Extras:         50Hz Content
    BDInfo:         0.5.8
    
    PLAYLIST REPORT:
    
    Name:                   00017.MPLS
    Length:                 2:54:54.080 (h:m:s.ms)
    Size:                   44,867,162,112 bytes
    Total Bitrate:          34.20 Mbps
    
    (*) Indicates included stream hidden by this playlist.
    
    VIDEO:
    
    Codec                   Bitrate             Description     
    -----                   -------             -----------     
    MPEG-4 AVC Video        29836 kbps          1080i / 25 fps / 16:9 / High Profile 4.1
    
    AUDIO:
    
    Codec                           Language        Bitrate         Description     
    -----                           --------        -------         -----------     
    DTS-HD Master Audio             English         2547 kbps       5.1 / 48 kHz / 2547 kbps / 16-bit (DTS Core: 5.1 / 48 kHz / 1509 kbps / 16-bit)
    
    SUBTITLES:
    
    Codec                           Language        Bitrate         Description     
    -----                           --------        -------         -----------     
    Presentation Graphics           Vietnamese      53.813 kbps                     
    * Presentation Graphics         English         30.437 kbps                     
    
    FILES:
    
    Name            Time In         Length          Size            Total Bitrate   
    ----            -------         ------          ----            -------------   
    00002.M2TS      0:00:00.000     0:58:35.040     14,832,801,792  33,758          
    00003.M2TS      0:58:35.040     0:58:15.000     15,334,397,952  35,100          
    00015.M2TS      1:56:50.040     0:58:04.040     14,699,962,368  33,754   
    
    
    
    
    
    





    Hành Tinh Trái Đất 2 là series phim tài liệu về tự nhiên của đài BBC, tiếp nồi phần 1 được phát sóng năm 2006. Được Sir David Attenborough dẫn truyện, âm nhạc Hans Zimmer. Trailer đầu tiên được phát hành ngày 09/10/2016, và tập phim đầu tiên công chiếu ngày 06/11/2016 trên BBC One và BBC One HD và gồm có 6 tập. Planet Earth 2 là bộ phim đầu tiên BBC sản xuất dưới định dạng UltraHD, 4k.

    Tập 1: Các hòn đảo xa xôi là nơi trú ẩn cho những sinh vật kì lạ và hiếm thấy nhất hành tinh. Những con lười 3 ngón với cuộc sống bình dị trên đảo thuộc biển Caribê, trong khi những con hải âu làm tổ ở những hòn đảo cách ly khỏi động vật ăn thịt. Nhưng cuộc sống trên đảo luôn có cái giá của nó. Trên quần đảo Galapagos, những con cự đà biển non phải thoát khỏi những con rắn lải đen nguy hiểm khi mới nở. Hòn đảo nhỏ bé Zavodovski, cuộc sống còn trở nên khắc nghiệt hơn với nửa triệu con chim cánh cụt. Chúng phải chịu hiểm nguy vì có thể bị va vào vách đá bởi sóng biển khi đi săn mồi hoặc khi trở về, chưa kể bị hải cẩu săn...

    Tập 2: Các dãy núi luôn là những cảnh quan ngoạn mục nhất hành tinh. Nhưng chúng lại là nơi không hề dễ dàng để sinh tồn, và chỉ có vài loài có thể sống ở độ cao này. Chúng là một trong số những động vật khó nắm bắt nhất thế giới, và tập phim này hé lộ những cái nhìn độc đáo, sâu sắc về cuộc sống của chúng. Chứng kiến những khoảnh khắc 2 con báo đực lao vào nhau, và báo mẹ cùng báo con mắc kẹt giữa 2 tình địch hung hãn đó. Những con gấu xám Bắc Mỹ chà bộ lông của mình, bay lượn cùng đại bàng vàng trên các đỉnh núi phủ tuyết trắng của Châu Âu.

    Tập 3: Rừng tạo ra môi trường sống phong phú nhất hành tinh - một thế giới đầy bí ẩn mà động vật luôn cố gắng cạnh tranh để tồn tại. Rừng ngập nước, ngôi nhà của loài cá heo kỳ lạ sống giữa rừng cây? Hay loài ếch ninja phải chống lại ong bắp cày; những con thằn lằn bay lượn lờ xuyên khu rừng. Những chú khỉ indri trong những khu rừng ở Madagascar và những rừng đêm ẩn chứa những loài nấm kì lạ phát sáng. Những cảnh phim chưa từng được hé lộ sẽ khiến bạn không thể rời mắt.


    Nguồn: hatieupro@NetHD
    Biên dịch: hatieupro, altamodano, cuongctcclh | NetHD.ORG
    Remux: NetBD Team
    ĐẶC BIỆT CẢM ƠN ALTAMODANO ĐÃ HỖ TRỢ HOÀN TẤT BỘ BLURAY NÀY





    loading...

    Thấy hay chia sẻ ngay