FS 4S Paris by Night 125: Chiều Mưa Biên Giới 2018 mHD BluRay AAC x264-HDT.mp4

Thảo luận trong 'Phim cho iPad/iPhone/Android' bắt đầu bởi TaiphimHD, 29/7/18.

  1. TaiphimHD Administrator

    151 lượt xem
    Paris by Night 125: Chiều Mưa Biên Giới 2018 mHD BluRay AAC x264-HDT.mp4
    {Internal}
    Ca Nhạc Thúy Nga
    (Bằng Kiều, Lam Anh, Tóc Tiên, Minh Tuyết, Như Quỳnh)



    [​IMG]



    [​IMG]





    General
    Complete name : Paris.By.Night.125.Chieu.Mua.Bien.Gioi.2018.mHD.BluRay.AAC.x264-HDT.mp4
    Format : MPEG-4
    Format profile : Base Media
    Codec ID : isom (isom/avc1)
    File size : 6.67 GiB
    Duration : 4 h 7 min
    Overall bit rate mode : Variable
    Overall bit rate : 3 867 kb/s
    Encoded date : UTC 2018-07-29 04:58:03
    Tagged date : UTC 2018-07-29 04:58:03

    Video
    ID : 1
    Format : AVC
    Format/Info : Advanced Video Codec
    Format profile : High@L4.1
    Format settings : CABAC / 9 Ref Frames
    Format settings, CABAC : Yes
    Format settings, RefFrames : 9 frames
    Codec ID : avc1
    Codec ID/Info : Advanced Video Coding
    Duration : 4 h 7 min
    Bit rate mode : Variable
    Bit rate : 3 732 kb/s
    Maximum bit rate : 40.0 Mb/s
    Width : 1 280 pixels
    Height : 720 pixels
    Display aspect ratio : 16:9
    Frame rate mode : Constant
    Frame rate : 59.940 (60000/1001) FPS
    Color space : YUV
    Chroma subsampling : 4:2:0
    Bit depth : 8 bits
    Scan type : Progressive
    Bits/(Pixel*Frame) : 0.068
    Stream size : 6.44 GiB (97%)
    Encoded date : UTC 2018-07-29 04:58:03
    Tagged date : UTC 2018-07-29 04:59:46
    Color range : Limited
    Matrix coefficients : BT.709

    Audio
    ID : 2
    Format : AAC
    Format/Info : Advanced Audio Codec
    Format profile : HE-AAC / LC
    Format settings : Explicit
    Codec ID : mp4a-40-2
    Duration : 4 h 7 min
    Bit rate mode : Variable
    Bit rate : 128 kb/s
    Maximum bit rate : 137 kb/s
    Channel(s) : 2 channels
    Channel positions : Front: L R
    Sampling rate : 48.0 kHz / 24.0 kHz
    Frame rate : 23.438 FPS (1024 SPF)
    Compression mode : Lossy
    Stream size : 226 MiB (3%)
    Language : Vietnamese
    Encoded date : UTC 2018-07-29 02:35:58
    Tagged date : UTC 2018-07-29 04:59:46




    Song List:

    01. Phiên Gác Đêm Xuân - Khải Đăng & Sắc Hoa Màu Nhớ - Hà Thanh Xuân
    02. Chiều Mưa Biên Giới - Hương Lan
    03. Anh (Anh Nhớ Gì Không Anh?) - Trần Thái Hòa
    04. Chiếc Bóng Công Viên - Giao Linh
    05. Bóng Nhỏ Giáo Đường - Mai Thiên Vân
    06. Hải Ngoại Thương Ca - Anh Dũng
    07. Cô Nữ Sinh Gia Long - Ngọc Ngữ & Châu Ngọc Hà
    08. Thương Muộn - Lam Anh
    09. Thương Về Mùa Đông Biên Giới - Hạ Vy
    10. Anh Trước Tôi Sau - Anh Khoa
    11. Mấy Dặm Sơn Khê - Ý Lan
    12. Dạ Sầu (Nỗi Buồn Duyên Kiếp) - Nguyễn Hồng Nhung
    13. Trích đoạn “Tiếng Hạt Trong Trăng” (Yên Ba, Loan Thảo) - Như Quỳnh, Kim Tiểu Long, Hoài Tâm
    14. Tân cổ “Thầm Kín” - Hương Thủy & Mạnh Quỳnh
    15. Đom Đóm - Trần Thái Hòa & Hoàng Nhung
    16. Niềm Đau Dĩ Vãng - Như Ý
    17. Về Mái Nhà Xưa - Don Hồ
    18. Đoạn Tuyệt - Hoàng Oanh
    19. Lời Giã Biệt - Thanh Tuyền
    20. Nhớ Một Chiều Xuân - Vũ Khanh
    21. Khi Đã Yêu - Minh Tuyết
    22. Bông Hồng Cài Áo - Hoàng Nhung, H.T.Xuân, Như Ý
    23. Cay Đắng Tình Đời - Ngọc Anh
    24. Xin Đừng Trách Anh - Đình Bảo
    25. Mùa Sao Sáng - Thiên Tôn
    26. Khúc Tình Ca Hàng Hàng Lớp Lớp - Hợp Ca




    [​IMG]


    [​IMG] [​IMG] [​IMG] [​IMG] [​IMG] [​IMG] [​IMG] [​IMG] [​IMG] [​IMG] [​IMG] [​IMG] [​IMG] [​IMG] [​IMG] [​IMG] [​IMG] [​IMG] [​IMG] [​IMG] [​IMG]

    Full Screenshots:

    ☆☆☆ Gallery => Click Vào Link Để Xem Ảnh Lớn ☆☆☆

    [​IMG]



    ☆☆☆ Click Vào Link Để Xem Trailer ☆☆☆

    [​IMG]

    One Link :

    [​IMG]

    Source mr ATN & hbinhlove2003 ~ Thank mate !

    Nội dung Ẩn:
    **Link đã được ẩn: Bạn click nút Like để lấy link download nhé.**
    Xem hướng dẫn

    [​IMG]

    Nội dung Ẩn:
    **Link đã được ẩn: Bạn click nút Like để lấy link download nhé.**
    Xem hướng dẫn
    [​IMG]

    Nội dung Ẩn:
    **Link đã được ẩn: Bạn click nút Like để lấy link download nhé.**
    Xem hướng dẫn


    [​IMG]
    Last edited: 29/7/18

    Thấy hay chia sẻ ngay

Đang tải...