FS Not Another Teen Movie 720p WEB-DL MkvCage (2001) - Không Phải Phim Tuổi Teen (VietSub)

Thảo luận trong 'mHD & BRRip' bắt đầu bởi zinzuno, 17/12/15.

  1. zinzuno Uploader

    424 lượt xem
    Not Another Teen Movie
    Không Phải Phim Tuổi Teen
    (Chyler Leigh, Jaime Pressly, Chris Evans)

    IMDB:

    http://www.imdb.com/title/tt0277371/


    [​IMG]
    Nội Dung:
    INFO
    Code:
    --------------------------MEDiA iNFO-----------------------------
    
    Format                      : Matroska
    Format version              : Version 4 / Version 2
    File size                   : 700 MiB
    Duration                    : 1h 28mn
    Overall bit rate            : 1 099 Kbps
    Movie name                  : Not.Another.Teen.Movie.2001.720p.WEB-DL.700MB.MkvCage
    Encoded date                : UTC 2015-08-08 12:06:01
    Writing application         : mkvmerge v7.4.0 ('Circles') 64bit built on Dec 12 2014 12:19:56
    Writing library             : libebml v1.3.0 + libmatroska v1.4.1
    Video
    ID                          : 1
    Format                      : AVC
    Format/Info                 : Advanced Video Codec
    Format profile              : High@L4.1
    Format settings, CABAC      : Yes
    Format settings, ReFrames   : 9 frames
    Codec ID                    : V_MPEG4/ISO/AVC
    Duration                    : 1h 28mn
    Bit rate                    : 1 034 Kbps
    Width                       : 1 280 pixels
    Height                      : 718 pixels
    Display aspect ratio        : 16:9
    Frame rate mode             : Constant
    Frame rate                  : 23.976 (24000/1001) fps
    Color space                 : YUV
    Chroma subsampling          : 4:2:0
    Bit depth                   : 8 bits
    Scan type                   : Progressive
    Bits/(Pixel*Frame)          : 0.047
    Stream size                 : 658 MiB (94%)
    Writing library             : x264 core 146 r2538 121396c
    Audio
    ID                          : 2
    Format                      : AAC
    Format/Info                 : Advanced Audio Codec
    Format profile              : HE-AAC / LC
    Codec ID                    : A_AAC
    Duration                    : 1h 28mn
    Bit rate                    : 64.0 Kbps
    Channel(s)                  : 2 channels
    Channel positions           : Front: L R
    Sampling rate               : 48.0 KHz / 24.0 KHz
    Frame rate                  : 23.438 fps (1024 spf)
    Compression mode            : Lossy
    Delay relative to video     : 31ms
    Stream size                 : 40.7 MiB (6%)
    Language                    : English
    Default                     : Yes
    Forced                      : No
    
    CREENS:
    [​IMG][​IMG] [​IMG]
    [​IMG]
    Trailer:

    DOWNLOAD:

    700MB


    sub:
     
    : teen, zinzuno, movie
    loading...

    Thấy hay chia sẻ ngay