4S My wife's lover 1992 - Người Tình Của Vợ Tôi (18+)

Thảo luận trong 'DVDrip,CAM, TS...' bắt đầu bởi minh63355, 15/4/15.

  1. minh63355 Ma cà rồng

    531 lượt xem
    [​IMG]


    [​IMG]
    Code:
    Complete name  : My.Wifes.Lover.1992.avi
    Format  : AVI
    Format/Info  : Audio Video Interleave
    File size  : 918 MiB
    Duration  : 1h 27mn
    Overall bit rate  : 1 469 Kbps
    
    Video
    ID  : 0
    Format  : MPEG-4 Visual
    Format settings, BVOP  : 1
    Format settings, QPel  : No
    Format settings, GMC  : No warppoints
    Format settings, Matrix  : Default (H.263)
    Muxing mode  : Packed bitstream
    Codec ID  : DX50
    Codec ID/Hint  : DivX 5
    Duration  : 1h 27mn
    Bit rate  : 1 332 Kbps
    Width  : 608 pixels
    Height  : 352 pixels
    Display aspect ratio  : 1.727
    Frame rate  : 23.976 fps
    Color space  : YUV
    Chroma subsampling  : 4:2:0
    Bit depth  : 8 bits
    Scan type  : Progressive
    Compression mode  : Lossy
    Bits/(Pixel*Frame)  : 0.260
    Stream size  : 832 MiB (91%)
    Writing library  : DivX 5.2.1 (WaffleDay) (UTC 2004-09-08)
    
    Audio
    ID  : 1
    Format  : MPEG Audio
    Format version  : Version 1
    Format profile  : Layer 3
    Mode  : Joint stereo
    Mode extension  : MS Stereo
    Codec ID  : 55
    Codec ID/Hint  : MP3
    Duration  : 1h 27mn
    Bit rate mode  : Constant
    Bit rate  : 128 Kbps
    Channel(s)  : 2 channels
    Sampling rate  : 48.0 KHz
    Compression mode  : Lossy
    Stream size  : 80.0 MiB (9%)
    Alignment  : Aligned on interleaves
    Interleave, duration  : 42 ms (1.00 video frame)
    Interleave, preload duration  : 504 ms
    
    [​IMG]

    [​IMG]
    [​IMG]

    [​IMG]

    xshare, Boy94, namandy89 and 7 others like this.
     
    : minh63355
    loading...

    Thấy hay chia sẻ ngay