FS 4S Moon Shots 2015 DOCU 2160p BluRay REMUX HEVC DTS-HD MA.5.1-FGT | Những Thước Phim Về Mặt Trăng

Thảo luận trong 'Phim Tài liệu' bắt đầu bởi hoanglonghd, 11/3/18.

  1. hoanglonghd Uploader

    103 lượt xem
    Moon Shots 2015 DOCU 2160p BluRay REMUX HEVC DTS-HD MA.5.1-FGT
    Những Thước Phim Về Mặt Trăng

    [​IMG]


    Code:
    Video
    ID                                       : 1
    Format                                   : HEVC
    Format/Info                              : High Efficiency Video Coding
    Format profile                           : Main 10@L5.1@High
    Codec ID                                 : V_MPEGH/ISO/HEVC
    Duration                                 : 56 min 51 s
    Bit rate                                 : 45.0 Mb/s
    Width                                    : 3 840 pixels
    Height                                   : 2 160 pixels
    Display aspect ratio                     : 16:9
    Frame rate mode                          : Constant
    Frame rate                               : 23.976 (24000/1001) FPS
    Color space                              : YUV
    Chroma subsampling                       : 4:2:0
    Bit depth                                : 10 bits
    Bits/(Pixel*Frame)                       : 0.226
    Stream size                              : 17.9 GiB (86%)
    Title                                    : Moon.Shots.2015.DOCU.2160p.BluRay.REMUX.HEVC.DTS-HD.MA.5.1-FGT
    Writing library                          : ATEME Titan KFE 3.7.3 (4.7.3.1001)
    Default                                  : Yes
    Forced                                   : No
    Color range                              : Limited
    Color primaries                          : BT.709
    Transfer characteristics                 : BT.709
    Matrix coefficients                      : BT.709
    
    Audio #1
    ID                                       : 2
    Format                                   : DTS
    Format/Info                              : Digital Theater Systems
    Format profile                           : MA / Core
    Codec ID                                 : A_DTS
    Duration                                 : 56 min 51 s
    Bit rate mode                            : Variable / Constant
    Bit rate                                 : 3 642 kb/s / 1 509 kb/s
    Channel(s)                               : 6 channels
    Channel positions                        : Front: L C R, Side: L R, LFE
    Sampling rate                            : 48.0 kHz
    Frame rate                               : 93.750 FPS (512 SPF)
    Bit depth                                : 24 bits
    Compression mode                         : Lossless / Lossy
    Stream size                              : 1.45 GiB (7%)
    Title                                    : Moon.Shots.2015.DOCU.2160p.BluRay.REMUX.HEVC.DTS-HD.MA.5.1-FGT
    Language                                 : English
    Default                                  : Yes
    Forced                                   : No
    
    Audio #2
    ID                                       : 3
    Format                                   : DTS
    Format/Info                              : Digital Theater Systems
    Format profile                           : MA / Core
    Codec ID                                 : A_DTS
    Duration                                 : 56 min 51 s
    Bit rate mode                            : Variable / Constant
    Bit rate                                 : 3 697 kb/s / 1 509 kb/s
    Channel(s)                               : 6 channels
    Channel positions                        : Front: L C R, Side: L R, LFE
    Sampling rate                            : 48.0 kHz
    Frame rate                               : 93.750 FPS (512 SPF)
    Bit depth                                : 24 bits
    Compression mode                         : Lossless / Lossy
    Stream size                              : 1.47 GiB (7%)
    Title                                    : Moon.Shots.2015.DOCU.2160p.BluRay.REMUX.HEVC.DTS-HD.MA.5.1-FGT
    Language                                 : German
    Default                                  : No
    Forced                                   : No
    
    Text
    ID                                       : 4
    Format                                   : PGS
    Muxing mode                              : zlib
    Codec ID                                 : S_HDMV/PGS
    Codec ID/Info                            : Picture based subtitle format used on BDs/HD-DVDs
    Duration                                 : 55 min 50 s
    Bit rate                                 : 36.4 kb/s
    Count of elements                        : 998
    Stream size                              : 14.5 MiB (0%)
    Title                                    : German-PGS
    Language                                 : German
    Default                                  : No
    Forced                                   : No
    
    Menu
    00:00:00.000                             : en:Chapter 1
    00:10:43.100                             : en:Chapter 2
    00:21:09.810                             : en:Chapter 3
    00:30:52.433                             : en:Chapter 4
    00:43:52.254                             : en:Chapter 5
    
    
    
    



    [​IMG][​IMG][​IMG][​IMG][​IMG][​IMG]






    [/video]






    Tags:

    Thấy hay chia sẻ ngay

Đang tải...