FS For the Emperor 2014 mHD BluRay AAC x264-HDT ~ Nữ Giám Đốc Gợi Tình {HardSub Việt} {18+}

Thảo luận trong 'Phim cho iPad/iPhone/Android' bắt đầu bởi TaiphimHD, 24/10/14.

Tags:
  1. TaiphimHD Administrator

    7,537 lượt xem
    For the Emperor 2014 mHD BluRay AAC x264-HDT
    Nữ Giám Đốc Gợi Tình
    (Seong-Woong Park, Lee Tae-im, Lee Min-ki)



    [​IMG]


    [​IMG]

    Code:
    General
    Complete name                    : D:\AAAAAAAAAAAAAAAAAAAAAAAAAAAAAA\For.the.Emperor.2014.mHD.BluRay.AAC.x264-HDT.mp4
    Format                           : MPEG-4
    Format profile                   : Base Media
    Codec ID                         : isom
    File size                        : 2.00 GiB
    Duration                         : 1h 44mn
    Overall bit rate                 : 2 746 Kbps
    Encoded date                     : UTC 2014-10-23 13:02:16
    Tagged date                      : UTC 2014-10-23 13:02:16
    
    Video
    ID                               : 1
    Format                           : AVC
    Format/Info                      : Advanced Video Codec
    Format profile                   : High@L4.1
    Format settings, CABAC           : Yes
    Format settings, ReFrames        : 4 frames
    Codec ID                         : avc1
    Codec ID/Info                    : Advanced Video Coding
    Duration                         : 1h 44mn
    Bit rate                         : 2 551 Kbps
    Maximum bit rate                 : 8 116 Kbps
    Width                            : 1 280 pixels
    Height                           : 536 pixels
    Display aspect ratio             : 2.40:1
    Frame rate mode                  : Constant
    Frame rate                       : 24.000 fps
    Color space                      : YUV
    Chroma subsampling               : 4:2:0
    Bit depth                        : 8 bits
    Scan type                        : Progressive
    Bits/(Pixel*Frame)               : 0.155
    Stream size                      : 1.85 GiB (93%)
    Writing library                  : x264 core 142 r2431+42 c69a006 tMod [8-bit@all X86_64]
    Encoding settings                : cabac=1 / ref=3 / deblock=1:-3:-3 / analyse=0x3:0x113 / me=umh / subme=7 / psy=1 / fade_compensate=0.00 / psy_rd=1.05:0.00 / mixed_ref=1 / me_range=16 / chroma_me=1 / trellis=1 / 8x8dct=1 / cqm=0 / deadzone=21,11 / fast_pskip=1 / chroma_qp_offset=-2 / threads=12 / lookahead_threads=2 / sliced_threads=0 / nr=0 / decimate=1 / interlaced=0 / bluray_compat=0 / constrained_intra=0 / fgo=0 / bframes=3 / b_pyramid=2 / b_adapt=1 / b_bias=0 / direct=1 / weightb=1 / open_gop=0 / weightp=2 / keyint=240 / keyint_min=23 / scenecut=40 / intra_refresh=0 / rc_lookahead=40 / rc=2pass / mbtree=0 / bitrate=2551 / ratetol=1.0 / qcomp=0.60 / qpmin=0:0:0 / qpmax=69:69:69 / qpstep=4 / cplxblur=20.0 / qblur=0.5 / vbv_maxrate=38000 / vbv_bufsize=30000 / nal_hrd=none / filler=0 / ip_ratio=1.30 / pb_ratio=1.20 / aq=1:0.70 / aq-sensitivity=10.00 / aq-factor=1.00:1.00:1.00 / aq2=0 / aq3=0
    Encoded date                     : UTC 2014-10-23 13:02:16
    Tagged date                      : UTC 2014-10-23 13:10:32
    Matrix coefficients              : BT.709-5, BT.1361, IEC 61966-2-4 709, SMPTE RP177
    
    Audio
    ID                               : 2
    Format                           : AAC
    Format/Info                      : Advanced Audio Codec
    Format profile                   : LC
    Codec ID                         : 40
    Duration                         : 1h 44mn
    Bit rate mode                    : Variable
    Bit rate                         : 192 Kbps
    Maximum bit rate                 : 247 Kbps
    Channel(s)                       : 2 channels
    Channel positions                : Front: L R
    Sampling rate                    : 48.0 KHz
    Compression mode                 : Lossy
    Stream size                      : 144 MiB (7%)
    Encoded date                     : UTC 2014-10-23 11:59:05
    Tagged date                      : UTC 2014-10-23 13:10:32
    
    
    Bộ phim For the Emperor - 2014 xoay quanh câu chuyện của nữ giám đốc quyến rũ muốn một lần được nắm lấy trái tim của chàng trai nhiều tham vọng Lee Hwan (Lee Min Ki). Bên cạnh đó, cô còn có mối quan hệ bí mật với chủ tịch của tập đoàn Emperor Capital lớn nhất Busan. Dù bản thân là một người phụ nữ trẻ trung, thành đạt, có chỗ dựa vững về tiền bạc cũng như danh vọng, nhưng cô vẫn thất bại trong việc chinh phục người mình yêu…

    [​IMG]

    [​IMG] [​IMG] [​IMG] [​IMG] [​IMG] [​IMG] [​IMG] [​IMG]

    [​IMG] [​IMG] [​IMG] [​IMG] [​IMG] [​IMG] [​IMG] [​IMG] [​IMG] [​IMG]

    [​IMG]



    [​IMG]

    [​IMG]

    [​IMG]
    [​IMG]
    Phụ Đề :
    [​IMG]
    Last edited: 24/10/14
    Tags:
    ChipFA, Mrlam1986, Imekong and 539 others like this.

    Thấy hay chia sẻ ngay

  2. TaiphimHD

    TaiphimHD Administrator

  3. caheobuon

    caheobuon Thành viên mới

  4. Cubi19

    Cubi19 Thành viên mới

    Thank
    TaiphimHD thích bài này.
  5. quaithu15

    quaithu15 Thành viên mới

    thanks
    dnk20042003 and TaiphimHD like this.
Đang tải...