FS Appleseed Ex Machina 2007 1080p BluRay x264-AiRLiNE |Chiến Binh Tương Lai { Việt Sub }

Thảo luận trong 'Phim Hoạt Hình' bắt đầu bởi hoanglonghd, 9/1/17.

  1. hoanglonghd Uploader

    75 lượt xem
    Appleseed Ex Machina 2007 1080p BluRay x264-AiRLiNE
    Chiến Binh Tương Lai



    [​IMG]



    Code:
    [mediainfo]
    Video
    ID                                       : 1
    Format                                   : AVC
    Format/Info                              : Advanced Video Codec
    Format profile                           : High@L4.1
    Format settings, CABAC                   : Yes
    Format settings, ReFrames                : 4 frames
    Codec ID                                 : V_MPEG4/ISO/AVC
    Duration                                 : 1h 44mn
    Bit rate                                 : 8 160 Kbps
    Width                                    : 1 920 pixels
    Height                                   : 1 080 pixels
    Display aspect ratio                     : 16:9
    Frame rate mode                          : Constant
    Frame rate                               : 23.976 (24000/1001) fps
    Color space                              : YUV
    Chroma subsampling                       : 4:2:0
    Bit depth                                : 8 bits
    Scan type                                : Progressive
    Bits/(Pixel*Frame)                       : 0.164
    Stream size                              : 5.83 GiB (91%)
    Writing library                          : x264 core 128 r2216 198a7ea
    Encoding settings                        : cabac=1 / ref=4 / deblock=1:0:0 / analyse=0x3:0x113 / me=umh / subme=7 / psy=1 / psy_rd=1.00:0.00 / mixed_ref=1 / me_range=16 / chroma_me=1 / trellis=1 / 8x8dct=1 / cqm=0 / deadzone=21,11 / fast_pskip=0 / chroma_qp_offset=-2 / threads=4 / lookahead_threads=1 / sliced_threads=0 / nr=0 / decimate=1 / interlaced=0 / bluray_compat=0 / constrained_intra=0 / bframes=3 / b_pyramid=2 / b_adapt=1 / b_bias=0 / direct=1 / weightb=1 / open_gop=0 / weightp=2 / keyint=240 / keyint_min=22 / scenecut=40 / intra_refresh=0 / rc_lookahead=30 / rc=2pass / mbtree=1 / bitrate=8160 / ratetol=1.0 / qcomp=0.60 / qpmin=0 / qpmax=69 / qpstep=4 / cplxblur=20.0 / qblur=0.5 / ip_ratio=1.40 / aq=1:1.00
    Default                                  : Yes
    Forced                                   : No
    
    Audio
    ID                                       : 2
    Format                                   : AC-3
    Format/Info                              : Audio Coding 3
    Mode extension                           : CM (complete main)
    Format settings, Endianness              : Big
    Codec ID                                 : A_AC3
    Duration                                 : 1h 44mn
    Bit rate mode                            : Constant
    Bit rate                                 : 640 Kbps
    Channel(s)                               : 6 channels
    Channel positions                        : Front: L C R, Side: L R, LFE
    Sampling rate                            : 48.0 KHz
    Frame rate                               : 31.250 fps (1536 spf)
    Compression mode                         : Lossy
    Stream size                              : 478 MiB (7%)
    Language                                 : English
    Default                                  : No
    Forced                                   : No
    
    Menu #1
    00:00:00.000                             : en:00:00:00.000
    00:04:56.630                             : en:00:04:56.630
    00:09:16.389                             : en:00:09:16.389
    00:12:26.913                             : en:00:12:26.913
    00:16:17.310                             : en:00:16:17.310
    00:21:41.133                             : en:00:21:41.133
    00:24:52.157                             : en:00:24:52.157
    00:30:14.479                             : en:00:30:14.479
    00:32:01.086                             : en:00:32:01.086
    00:37:17.068                             : en:00:37:17.068
    00:42:47.064                             : en:00:42:47.064
    00:47:02.820                             : en:00:47:02.820
    00:51:15.072                             : en:00:51:15.072
    00:55:21.485                             : en:00:55:21.485
    01:01:18.008                             : en:01:01:18.008
    01:05:16.579                             : en:01:05:16.579
    01:09:13.649                             : en:01:09:13.649
    01:12:11.327                             : en:01:12:11.327
    01:15:49.545                             : en:01:15:49.545
    01:19:39.608                             : en:01:19:39.608
    01:24:13.715                             : en:01:24:13.715
    01:27:04.052                             : en:01:27:04.052
    01:29:37.539                             : en:01:29:37.539
    01:35:29.557                             : en:01:35:29.557
    01:38:25.900                             : en:01:38:25.900
    01:40:22.183                             : en:01:40:22.183
    
    Menu #2
    00:00:00.000                             : en:00:00:00.000
    00:04:56.630                             : en:00:04:56.630
    00:09:16.389                             : en:00:09:16.389
    00:12:26.913                             : en:00:12:26.913
    00:16:17.310                             : en:00:16:17.310
    00:21:41.133                             : en:00:21:41.133
    00:24:52.157                             : en:00:24:52.157
    00:30:14.479                             : en:00:30:14.479
    00:32:01.086                             : en:00:32:01.086
    00:37:17.068                             : en:00:37:17.068
    00:42:47.064                             : en:00:42:47.064
    00:47:02.820                             : en:00:47:02.820
    00:51:15.072                             : en:00:51:15.072
    00:55:21.485                             : en:00:55:21.485
    01:01:18.008                             : en:01:01:18.008
    01:05:16.579                             : en:01:05:16.579
    01:09:13.649                             : en:01:09:13.649
    01:12:11.327                             : en:01:12:11.327
    01:15:49.545                             : en:01:15:49.545
    01:19:39.608                             : en:01:19:39.608
    01:24:13.715                             : en:01:24:13.715
    01:27:04.052                             : en:01:27:04.052
    01:29:37.539                             : en:01:29:37.539
    01:35:29.557                             : en:01:35:29.557
    01:38:25.900                             : en:01:38:25.900
    01:40:22.183                             : en:01:40:22.183
    
    
    
    [/mediainfo]
    
    



    Trong một lần tham gia nhiệm vụ, Briareos vì cứu Deunan đã bị trọng thương. Nhiều năm cùng thi hành chung nhiệm vụ, giờ đây Deunan phải hợp tác với thành viên mới Tereus. Điều đặc biệt là khuôn mặt của Tereous lại giống y chang Briareos trước khi anh trở thành người máy.




    loading...

    Thấy hay chia sẻ ngay