FS An Endless Night 2016 1080p WEBRip H264 ~ Une nuit sans fin | Rick Angel, Lucie Blush, Jean Diana [18+]

Thảo luận trong 'DVDrip,CAM, TS...' bắt đầu bởi pede, 3/1/17.

  1. pede Uploader

    203 lượt xem
    An Endless Night 2016 1080p WEBRip H264

    Une nuit sans fin

    [​IMG]

    (Rick Angel, Lucie Blush, Jean Diana)

    [​IMG]

    [​IMG]


    Thông tin phim. Click HERE:
    The story of Lucie, a girl who wakes up at a hotel room naked, and alone. She had spent the night drinking with friends, but her memory is playing a dangerous game she simply can t seem to remember how the night ended. Who took her to that hotel? And, more important, what happened there? She asks a friend for help and together they attempt to assemble the puzzle only to find out that the truth turns out to be a lot more intricate than they would have ever thought.

    General
    Complete name : H:\Sharing\Une nuit sans fin.mp4
    Format : MPEG-4
    Format profile : Base Media / Version 2
    Codec ID : mp42 (isom/iso2/avc1/mp41)
    File size : 1.99 GiB
    Duration : 1 h 8 min
    Overall bit rate mode : Variable
    Overall bit rate : 4 169 kb/s
    Encoded date : UTC 2016-05-31 18:23:13
    Tagged date : UTC 2016-05-31 18:23:13
    Writing application : HandBrake 0.10.5 2016021100

    Video
    ID : 1
    Format : AVC
    Format/Info : Advanced Video Codec
    Format profile : Main@L4
    Format settings, CABAC : Yes
    Format settings, ReFrames : 4 frames
    Codec ID : avc1
    Codec ID/Info : Advanced Video Coding
    Duration : 1 h 8 min
    Bit rate : 4 000 kb/s
    Width : 1 920 pixels
    Height : 1 080 pixels
    Display aspect ratio : 16:9
    Frame rate mode : Constant
    Frame rate : 25.000 FPS
    Color space : YUV
    Chroma subsampling : 4:2:0
    Bit depth : 8 bits
    Scan type : Progressive
    Bits/(Pixel*Frame) : 0.077
    Stream size : 1.91 GiB (96%)
    Writing library : x264 core 142 r2479 dd79a61
    Encoding settings : cabac=1 / ref=3 / deblock=1:0:0 / analyse=0x1:0x111 / me=hex / subme=7 / psy=1 / psy_rd=1.00:0.00 / mixed_ref=1 / me_range=16 / chroma_me=1 / trellis=1 / 8x8dct=0 / cqm=0 / deadzone=21,11 / fast_pskip=1 / chroma_qp_offset=-2 / threads=12 / lookahead_threads=2 / sliced_threads=0 / nr=0 / decimate=1 / interlaced=0 / bluray_compat=0 / constrained_intra=0 / bframes=3 / b_pyramid=2 / b_adapt=1 / b_bias=0 / direct=1 / weightb=1 / open_gop=0 / weightp=2 / keyint=250 / keyint_min=25 / scenecut=40 / intra_refresh=0 / rc_lookahead=40 / rc=2pass / mbtree=1 / bitrate=4000 / ratetol=1.0 / qcomp=0.60 / qpmin=0 / qpmax=69 / qpstep=4 / cplxblur=20.0 / qblur=0.5 / vbv_maxrate=20000 / vbv_bufsize=25000 / nal_hrd=none / filler=0 / ip_ratio=1.40 / aq=1:1.00
    Encoded date : UTC 2016-05-31 18:23:13
    Tagged date : UTC 2016-05-31 18:23:13
    Color range : Limited
    Color primaries : BT.709
    Transfer characteristics : BT.709
    Matrix coefficients : BT.709

    Audio
    ID : 2
    Format : AAC
    Format/Info : Advanced Audio Codec
    Format profile : LC
    Codec ID : 40
    Duration : 1 h 8 min
    Bit rate mode : Variable
    Bit rate : 164 kb/s
    Channel(s) : 2 channels
    Channel positions : Front: L R
    Sampling rate : 48.0 kHz
    Frame rate : 46.875 FPS (1024 spf)
    Compression mode : Lossy
    Stream size : 80.5 MiB (4%)
    Title : Stereo / Stereo
    Default : Yes
    Alternate group : 1
    Encoded date : UTC 2016-05-31 18:23:13
    Tagged date : UTC 2016-05-31 18:23:13

    SCREENSHOTs

    [​IMG] [​IMG]





    Download
    (Dung lượng: 2 GiB)
    Nội dung Ẩn:
    **Link đã được ẩn: Bạn click nút Like để lấy link download nhé.**
    Xem hướng dẫn
     

    Thấy hay chia sẻ ngay