FS 4S {18+} The Beautiful Prisone 1983 720p BluRay AC3 x264-HDCLUB-SbR

Thảo luận trong '720p & 1080p' bắt đầu bởi hoanglonghd, 11/1/17.

  1. hoanglonghd Uploader

    153 lượt xem
    The Beautiful Prisone 1983 720p BluRay AC3 x264-HDCLUB-SbR


    [​IMG]



    Code:
    
    General
    Unique ID                                : 220353761864498916313989280966817672958 (0xA5C69740DA403407BC49B728F1FCEEFE)
    Complete name                            : /media/sdl1/home/nethd/private/rtorrent/data/The.Beautiful.Prisone.1983.720p.BluRay.4xRus.Fre.HDCLUB-SbR .mkv
    Format                                   : Matroska
    Format version                           : Version 4 / Version 2
    File size                                : 6.43 GiB
    Duration                                 : 1h 28mn
    Overall bit rate mode                    : Variable
    Overall bit rate                         : 10.4 Mbps
    Encoded date                             : UTC 2016-04-06 18:23:28
    Writing application                      : mkvmerge v9.0.1 ('Obstacles') 64bit
    Writing library                          : libebml v1.3.3 + libmatroska v1.4.4
    Attachements                             : cover.jpg
    DURATION                                 : 01:24:35.779000000
    NUMBER_OF_FRAMES                         : 529
    NUMBER_OF_BYTES                          : 18548
    _STATISTICS_WRITING_APP                  : mkvmerge v9.0.1 ('Obstacles') 64bit
    _STATISTICS_WRITING_DATE_UTC             : 2016-04-06 18:23:28
    _STATISTICS_TAGS                         : BPS DURATION NUMBER_OF_FRAMES NUMBER_OF_BYTES
    
    Video
    ID                                       : 1
    Format                                   : AVC
    Format/Info                              : Advanced Video Codec
    Format profile                           : High@L4.1
    Format settings, CABAC                   : Yes
    Format settings, ReFrames                : 9 frames
    Codec ID                                 : V_MPEG4/ISO/AVC
    Duration                                 : 1h 28mn
    Nominal bit rate                         : 8 200 Kbps
    Width                                    : 1 198 pixels
    Height                                   : 720 pixels
    Display aspect ratio                     : 1.664
    Frame rate mode                          : Constant
    Frame rate                               : 23.976 fps
    Color space                              : YUV
    Chroma subsampling                       : 4:2:0
    Bit depth                                : 8 bits
    Scan type                                : Progressive
    Bits/(Pixel*Frame)                       : 0.397
    Writing library                          : x264 core 148 r2665+53 6629127 t_mod_Custom [8-bit@all X86_64]
    Encoding settings                        : cabac=1 / ref=9 / deblock=1:-3:-3 / analyse=0x3:0x133 / me=umh / subme=10 / psy=1 / fade_compensate=0.00 / psy_rd=1.10:0.05 / mixed_ref=1 / me_range=24 / chroma_me=1 / trellis=2 / 8x8dct=1 / cqm=0 / deadzone=21,11 / fast_pskip=0 / chroma_qp_offset=-3 / threads=6 / lookahead_threads=1 / sliced_threads=0 / nr=0 / decimate=1 / interlaced=0 / bluray_compat=0 / constrained_intra=0 / fgo=0 / bframes=9 / b_pyramid=2 / b_adapt=2 / b_bias=0 / direct=3 / weightb=1 / open_gop=0 / weightp=2 / keyint=250 / keyint_min=23 / scenecut=40 / intra_refresh=0 / rc=2pass / mbtree=0 / bitrate=8200 / ratetol=1.0 / qcomp=0.65 / qpmin=0:0:0 / qpmax=69:69:69 / qpstep=4 / cplxblur=20.0 / qblur=0.5 / ip_ratio=1.30 / pb_ratio=1.20 / aq=1:0.70 / aq-sensitivity=10.00 / aq-factor=1.00:1.00:1.00 / aq2=1:0.65 / aq2-sensitivity=15.00 / aq2-factor=1.00:1.00:1.00 / aq3=1:[0.60:0.60]:[0.60:0.60]:[0.60:0.60]:[0.60:0.60] / aq3-sensitivity=10.00 / aq3-factor=[1.00:1.00]:[1.00:1.00]:[1.00:1.00] / aq3-boundary=192:64:24
    Language                                 : English
    Default                                  : Yes
    Forced                                   : No
    Matrix coefficients                      : BT.709
    DURATION                                 : 01:28:25.843000000
    NUMBER_OF_FRAMES                         : 127213
    NUMBER_OF_BYTES                          : 5437470353
    _STATISTICS_WRITING_APP                  : mkvmerge v9.0.1 ('Obstacles') 64bit
    _STATISTICS_WRITING_DATE_UTC             : 2016-04-06 18:23:28
    _STATISTICS_TAGS                         : BPS DURATION NUMBER_OF_FRAMES NUMBER_OF_BYTES
    
    Audio #1
    ID                                       : 2
    Format                                   : AC-3
    Format/Info                              : Audio Coding 3
    Mode extension                           : CM (complete main)
    Format settings, Endianness              : Big
    Codec ID                                 : A_AC3
    Duration                                 : 1h 28mn
    Bit rate mode                            : Constant
    Bit rate                                 : 192 Kbps
    Channel(s)                               : 2 channels
    Channel positions                        : Front: L R
    Sampling rate                            : 48.0 KHz
    Bit depth                                : 16 bits
    Compression mode                         : Lossy
    Stream size                              : 121 MiB (2%)
    Title                                    : Многоголосый закадровый, Петербург Пятый канал
    Language                                 : Russian
    Default                                  : Yes
    Forced                                   : No
    
    Audio #2
    ID                                       : 3
    Format                                   : AC-3
    Format/Info                              : Audio Coding 3
    Mode extension                           : CM (complete main)
    Format settings, Endianness              : Big
    Codec ID                                 : A_AC3
    Duration                                 : 1h 28mn
    Bit rate mode                            : Constant
    Bit rate                                 : 192 Kbps
    Channel(s)                               : 2 channels
    Channel positions                        : Front: L R
    Sampling rate                            : 48.0 KHz
    Bit depth                                : 16 bits
    Compression mode                         : Lossy
    Stream size                              : 121 MiB (2%)
    Title                                    : Многоголосый закадровый
    Language                                 : Russian
    Default                                  : No
    Forced                                   : No
    
    Audio #3
    ID                                       : 4
    Format                                   : DTS
    Format/Info                              : Digital Theater Systems
    Mode                                     : 16
    Format settings, Endianness              : Big
    Codec ID                                 : A_DTS
    Duration                                 : 1h 28mn
    Bit rate mode                            : Constant
    Bit rate                                 : 768 Kbps
    Channel(s)                               : 2 channels
    Channel positions                        : Front: L R
    Sampling rate                            : 48.0 KHz
    Bit depth                                : 16 bits
    Compression mode                         : Lossy
    Stream size                              : 486 MiB (7%)
    Title                                    : Одноголосый закадровый, А. Алексеев
    Language                                 : Russian
    Default                                  : No
    Forced                                   : No
    
    Audio #4
    ID                                       : 5
    Format                                   : DTS
    Format/Info                              : Digital Theater Systems
    Mode                                     : 16
    Format settings, Endianness              : Big
    Codec ID                                 : A_DTS
    Duration                                 : 1h 28mn
    Bit rate mode                            : Constant
    Bit rate                                 : 768 Kbps
    Channel(s)                               : 2 channels
    Channel positions                        : Front: L R
    Sampling rate                            : 48.0 KHz
    Bit depth                                : 16 bits
    Compression mode                         : Lossy
    Stream size                              : 486 MiB (7%)
    Title                                    : Одноголосый закадровый, С. Кузнецов
    Language                                 : Russian
    Default                                  : No
    Forced                                   : No
    
    Audio #5
    ID                                       : 6
    Format                                   : FLAC
    Format/Info                              : Free Lossless Audio Codec
    Codec ID                                 : A_FLAC
    Duration                                 : 1h 28mn
    Bit rate mode                            : Variable
    Channel(s)                               : 2 channels
    Sampling rate                            : 48.0 KHz
    Bit depth                                : 16 bits
    Writing library                          : libFLAC 1.2.1 (UTC 2007-09-17)
    Language                                 : French
    Default                                  : No
    Forced                                   : No
    
    Text #1
    ID                                       : 7
    Format                                   : UTF-8
    Codec ID                                 : S_TEXT/UTF8
    Codec ID/Info                            : UTF-8 Plain Text
    Language                                 : Russian
    Default                                  : No
    Forced                                   : No
    
    Text #2
    ID                                       : 8
    Format                                   : UTF-8
    Codec ID                                 : S_TEXT/UTF8
    Codec ID/Info                            : UTF-8 Plain Text
    Language                                 : English
    Default                                  : No
    Forced                                   : No
    
    Menu
    00:00:00.000                             : en:00:00:00.000
    00:01:45.730                             : en:00:01:45.730
    00:13:50.454                             : en:00:13:50.454
    00:24:08.446                             : en:00:24:08.446
    00:40:11.409                             : en:00:40:11.409
    00:54:27.264                             : en:00:54:27.264
    01:10:53.874                             : en:01:10:53.874
    01:24:13.047                             : en:01:24:13.047
    






    [​IMG] [​IMG] [​IMG] [​IMG] [​IMG] [​IMG] [​IMG] [​IMG] [​IMG] [​IMG] [​IMG] [​IMG]





    Link Fshare.VN:


    Link 4share.VN:






    Subscene

    Thấy hay chia sẻ ngay

  2. hoanglonghd

    hoanglonghd Uploader